<?xml version="1.0" standalone="no"?>
<!DOCTYPE svg PUBLIC "-//W3C//DTD SVG 1.1//EN" "http://www.w3.org/Graphics/SVG/1.1/DTD/svg11.dtd" >
<svg xmlns="http://www.w3.org/2000/svg" xmlns:xlink="http://www.w3.org/1999/xlink" version="1.1">
<metadata>
Created by FontForge 20170731 at Tue Oct  9 23:05:04 2001
 By Aleksey,,,
Copyright (c) 1985, 1987, 1991, 1993 Adobe Systems Incorporated. All Rights Reserved.Helvetica is a trademark of Linotype-Hell AG and/or its subsidiaries.
</metadata>
<defs>
<font id="HelveticaLT-Condensed-Black" horiz-adv-x="500" >
  <font-face 
    font-family="Helvetica LT CondensedBlack"
    font-weight="900"
    font-stretch="normal"
    units-per-em="1000"
    panose-1="2 0 10 6 5 0 0 2 0 4"
    ascent="800"
    descent="-200"
    x-height="560"
    cap-height="750"
    bbox="-168 -250 1113 1000"
    underline-thickness="50"
    underline-position="-175"
    unicode-range="U+0020-FB02"
  />
<missing-glyph horiz-adv-x="250" 
 />
    <glyph glyph-name=".notdef" horiz-adv-x="250" 
 />
    <glyph glyph-name=".null" horiz-adv-x="0" 
 />
    <glyph glyph-name="nonmarkingreturn" horiz-adv-x="250" 
 />
    <glyph glyph-name="space" unicode=" " horiz-adv-x="250" 
 />
    <glyph glyph-name="space" unicode="&#xa0;" horiz-adv-x="250" 
 />
    <glyph glyph-name="exclam" unicode="!" horiz-adv-x="333" 
d="M83 0v171h169v-171h-169zM79 561v189h176v-189l-43 -320h-90z" />
    <glyph glyph-name="quotedbl" unicode="&#x22;" horiz-adv-x="333" 
d="M16 468v271h119v-271h-119zM199 468v271h119v-271h-119z" />
    <glyph glyph-name="numbersign" unicode="#" 
d="M218 430l-12 -94h86l12 94h-86zM465 222h-101l-30 -222h-87l29 222h-85l-30 -222h-90l30 222h-92v114h108l14 94h-94v115h108l28 205h87l-27 -205h86l27 205h90l-28 -205h83v-115h-99l-12 -94h85v-114z" />
    <glyph glyph-name="dollar" unicode="$" 
d="M227 608q-28 -8 -46.5 -22t-18.5 -48q0 -30 18 -52t47 -30v152zM271 100q32 6 54.5 29t17.5 59q-5 9 -5 17t-4.5 16.5t-18 19t-44.5 26.5v-167zM153 215q3 -8 2 -23.5t3 -33.5t17 -34.5t45 -25.5v187q-44 21 -80.5 42t-62.5 48.5t-41 64.5t-15 90q0 40 15 74t40.5 59
t60 40t72.5 17v66h88v-66q43 -4 78 -21t59 -44.5t36 -64.5t11 -81h-140q0 16 -3 32.5t-10.5 30t-19.5 23t-30 11.5v-175q44 -19 82 -38.5t65.5 -46t43 -63.5t15.5 -90q0 -94 -50.5 -148t-144.5 -61v-110h-88v111q-52 9 -87.5 26t-57.5 45t-32 67t-10 92h139z" />
    <glyph glyph-name="percent" unicode="%" horiz-adv-x="833" 
d="M184 454q17 0 25 11t11 26t3 31v29t1 28t-2 30.5t-11.5 25t-26.5 10.5q-18 1 -26 -9t-11 -25t-2.5 -31.5t0.5 -28.5q0 -17 -0.5 -34t2 -31t11 -23t26.5 -9zM650 278q-18 1 -26 -8.5t-11 -24.5t-2.5 -31.5t0.5 -28.5q0 -17 -0.5 -34.5t2 -31.5t11 -23t26.5 -9q17 0 25 11
t11 26.5t3 31.5v29t1 28t-2 30.5t-11.5 24.5t-26.5 10zM292 -18h-84l338 768h82zM650 369q47 0 78 -12.5t49 -36.5t25.5 -58.5t7.5 -78.5q0 -39 -5.5 -73.5t-22.5 -59.5t-48.5 -39.5t-83.5 -14.5q-48 0 -79 13t-49 37t-25 58.5t-7 78.5q0 41 8 75t27 59t49.5 38.5t75.5 13.5
zM184 363q-48 0 -79 13t-49 37t-25 58.5t-7 78.5q0 41 8 75t27 59t49.5 38.5t75.5 13.5q89 0 124.5 -46t35.5 -140q0 -39 -5.5 -73.5t-22.5 -59.5t-48.5 -39.5t-83.5 -14.5z" />
    <glyph glyph-name="ampersand" unicode="&#x26;" horiz-adv-x="667" 
d="M308 658q-20 0 -32 -13.5t-12 -32.5q0 -24 12.5 -49t29.5 -41q10 5 19.5 14.5t17 21.5t12 24.5t4.5 23.5q0 26 -12 39t-39 13zM254 331q-13 -14 -22.5 -26.5t-16 -26t-9.5 -29t-3 -35.5q0 -40 26.5 -68.5t66.5 -28.5q20 1 39 11t36 22zM439 43q-71 -61 -167 -61
q-50 0 -91.5 15.5t-71 44.5t-46 70.5t-16.5 92.5q0 78 36.5 138t102.5 101q-29 35 -45 77.5t-16 89.5q0 39 17.5 68.5t45.5 49t63 29.5t69 10q37 0 70.5 -10.5t58.5 -30.5t40 -51t15 -71q0 -64 -36 -110t-91 -75q20 -32 41 -63.5t40 -63.5h2q6 28 10.5 54t9.5 52h129
q-2 -63 -20.5 -122.5t-46.5 -114.5l103 -162h-179z" />
    <glyph glyph-name="quotesingle" unicode="'" horiz-adv-x="250" 
d="M66 468v271h119v-271h-119z" />
    <glyph glyph-name="parenleft" unicode="(" horiz-adv-x="278" 
d="M258 750q-45 -115 -63.5 -233.5t-18.5 -241.5q0 -118 20.5 -235.5t65.5 -226.5h-125q-29 69 -50 124t-35 109t-21 114t-7 138q0 62 7.5 119.5t22 112.5t35.5 109.5t48 110.5h121z" />
    <glyph glyph-name="parenright" unicode=")" horiz-adv-x="278" 
d="M20 -187q45 115 63.5 233.5t18.5 241.5q0 118 -20.5 235.5t-65.5 226.5h125q29 -69 50 -124t35 -109t21 -114t7 -138q0 -62 -7.5 -119.5t-22 -112.5t-35.5 -109.5t-48 -110.5h-121z" />
    <glyph glyph-name="asterisk" unicode="*" 
d="M205 750h93v-113l109 42l30 -92l-114 -35l78 -101l-74 -58l-77 103l-71 -100l-78 54l77 99l-114 33l30 90l111 -38v116z" />
    <glyph glyph-name="plus" unicode="+" 
d="M193 492h115v-185h167v-115h-167v-192h-115v192h-167v115h167v185z" />
    <glyph glyph-name="comma" unicode="," horiz-adv-x="333" 
d="M82 -99q42 1 65 28q12 13 18 31t8 40h-91v171h169v-172q0 -39 -12.5 -67t-35 -47t-53.5 -28.5t-68 -12.5v57z" />
    <glyph glyph-name="hyphen" unicode="-" horiz-adv-x="333" 
d="M43 237v150h248v-150h-248z" />
    <glyph glyph-name="hyphen" unicode="&#xad;" horiz-adv-x="333" 
d="M43 237v150h248v-150h-248z" />
    <glyph glyph-name="period" unicode="." horiz-adv-x="333" 
d="M82 0v171h169v-171h-169z" />
    <glyph glyph-name="slash" unicode="/" horiz-adv-x="278" 
d="M-28 -94l225 844h110l-228 -844h-107z" />
    <glyph glyph-name="zero" unicode="0" 
d="M305 538v18t-4.5 29.5t-16 27.5t-33.5 12q-20 0 -31.5 -7.5t-17 -20t-6.5 -28t-1 -31.5v-337q0 -17 1 -33.5t6 -30t16.5 -22t32.5 -8.5q21 1 32.5 12t16 26t5 30.5t0.5 25.5v337zM28 538q0 113 57.5 162.5t165.5 49.5q67 0 110.5 -16t68.5 -48.5t34 -80t8 -110.5v-270
q0 -62 -11 -107.5t-36.5 -75.5t-68.5 -45t-107 -15q-106 0 -163.5 49t-57.5 158v349z" />
    <glyph glyph-name="one" unicode="1" 
d="M190 506h-153v115q30 0 62.5 5t60.5 18t48.5 35t27.5 55h113v-734h-159v506z" />
    <glyph glyph-name="two" unicode="2" 
d="M24 479v39q0 112 58 172t172 60q102 0 159.5 -50.5t57.5 -155.5q0 -35 -5.5 -63.5t-17.5 -54t-29.5 -49t-41.5 -48.5l-65 -63l-25.5 -25.5t-30.5 -34t-27.5 -37t-15.5 -34.5h259v-135h-449v25q0 46 13.5 89.5t35 83.5t50 76.5t58.5 69.5l76 80q27 30 37.5 58t10.5 69
q0 14 -3.5 28t-11 24.5t-19.5 16.5t-29 5q-20 -1 -31.5 -13t-17.5 -29t-7.5 -35.5t-1.5 -32.5v-36h-159z" />
    <glyph glyph-name="three" unicode="3" 
d="M157 442q26 2 53.5 3t49.5 17q9 6 15 16t9.5 22t5.5 24t2 22q0 32 -12 54.5t-47 22.5q-22 0 -33 -11.5t-15.5 -28t-4.5 -35.5t-1 -34h-160l1 55q1 42 20.5 75.5t50.5 57t69 36t77 12.5q48 0 87.5 -11t67.5 -34t43.5 -60t15.5 -88q0 -60 -23.5 -100.5t-77.5 -66.5v-2
q34 -9 57 -27.5t37 -43.5t19.5 -54.5t5.5 -59.5q0 -114 -61 -167.5t-171 -53.5q-103 0 -157 54t-60 154l-1 51h158q1 -19 1 -42t5.5 -43.5t18 -34.5t39.5 -14q20 0 32 9t18.5 23t8.5 31t2 33q0 13 -1.5 28t-5.5 29.5t-11.5 27t-19.5 20.5q-23 13 -52.5 12.5t-54.5 1.5v120z
" />
    <glyph glyph-name="four" unicode="4" 
d="M259 268v243h-2l-122 -243h124zM9 283l234 451h175v-466h66v-125h-66v-143h-159v143h-250v140z" />
    <glyph glyph-name="five" unicode="5" 
d="M35 325l19 409h388v-135h-261l-7 -140q26 23 54 34.5t63 11.5q58 0 94 -22.5t55.5 -59.5t26 -83t6.5 -94q0 -61 -11 -109.5t-38 -83t-71 -53t-110 -18.5q-97 0 -146.5 45t-66.5 137v57h158q1 -14 1.5 -32.5t5 -36t14.5 -30.5t31 -15q25 -3 38.5 10.5t19.5 34t7 42.5t1 37
v43q0 26 -5.5 49.5t-19 40t-40.5 16.5q-54 0 -59 -55h-147z" />
    <glyph glyph-name="six" unicode="6" 
d="M250 107q18 0 29 9t17 23.5t8.5 31.5t2.5 34v75q0 15 -2.5 29t-9.5 25t-18 17.5t-29 6.5q-17 0 -27 -6.5t-16 -17t-8.5 -24.5t-2.5 -28v-110q0 -26 13.5 -45.5t42.5 -19.5zM304 556q-1 29 -11 49t-44 20q-24 0 -35.5 -14t-16 -34.5t-4 -42.5t0.5 -38v-50q15 11 27.5 18.5
t25.5 11.5t27.5 5.5t33.5 1.5q51 0 83.5 -19.5t50.5 -51t25 -72t7 -82.5q0 -63 -10 -114t-35.5 -87t-70.5 -55.5t-114 -19.5q-63 0 -105 20t-66.5 55.5t-35 84t-10.5 104.5v198q0 58 6 113.5t27.5 98t62.5 68.5t112 26q53 0 94.5 -9t70.5 -31.5t45 -59.5t18 -94h-159z" />
    <glyph glyph-name="seven" unicode="7" 
d="M24 734h432v-125q-48 -84 -79.5 -173.5t-55.5 -182.5q-17 -66 -26.5 -125.5t-17.5 -127.5h-173q0 38 12 96t29.5 119t37.5 117.5t37 92.5l78 174h-274v135z" />
    <glyph glyph-name="eight" unicode="8" 
d="M192 537q0 -14 2 -29.5t8 -28t17 -20.5t29 -8q19 0 31.5 8t19 21t9 29t2.5 32q0 14 -2.5 29.5t-9 28.5t-17.5 21.5t-29 8.5q-20 0 -32 -8t-18 -21.5t-8 -30t-2 -32.5zM249 104q24 0 37 11.5t18.5 29t6.5 37.5t1 38t-1.5 37.5t-7.5 36t-19 27t-37 10.5t-36.5 -11
t-17.5 -28t-5 -37v-38q0 -16 1 -35.5t7 -37t18.5 -29t34.5 -11.5zM121 396q-49 26 -68.5 64.5t-19.5 92.5q0 50 15.5 87t44 61.5t68.5 36.5t88 12q99 0 158.5 -48.5t59.5 -148.5q0 -48 -20 -89.5t-71 -67.5v-2q29 -17 47.5 -35t29 -39t14.5 -47.5t4 -59.5q0 -123 -59 -177
t-177 -54q-97 0 -151.5 61t-54.5 170q0 30 3 54.5t12.5 45.5t27.5 40.5t49 40.5v2z" />
    <glyph glyph-name="nine" unicode="9" 
d="M251 625q-23 0 -35 -15t-17 -36.5t-5 -44.5v-37v-38q0 -20 5.5 -38t17.5 -30t36 -12q23 0 34.5 11.5t16 29t4.5 36.5v36q0 18 1 41.5t-3.5 45t-16.5 36.5t-38 15zM197 176q1 -29 11 -49t44 -20q24 0 35.5 14t16 34.5t4 42.5t-0.5 38v50q-15 -11 -27.5 -18.5t-25.5 -11.5
t-27.5 -5.5t-33.5 -1.5q-51 0 -83.5 19.5t-50.5 51t-25 72t-7 82.5q0 63 10 114t35.5 87t70.5 55.5t114 19.5q63 0 105 -20t66.5 -55.5t35 -84t10.5 -104.5v-198q0 -59 -6 -114t-27.5 -97.5t-63 -68.5t-111.5 -26q-53 0 -94.5 9t-70.5 31.5t-45 59.5t-18 94h159z" />
    <glyph glyph-name="colon" unicode=":" horiz-adv-x="278" 
d="M55 0v171h169v-171h-169zM55 384v171h169v-171h-169z" />
    <glyph glyph-name="semicolon" unicode=";" horiz-adv-x="278" 
d="M55 384v171h169v-171h-169zM55 -99q42 1 65 28q12 13 18 31t8 40h-91v171h169v-172q0 -39 -12.5 -67t-35 -47t-53.5 -28.5t-68 -12.5v57z" />
    <glyph glyph-name="less" unicode="&#x3c;" 
d="M459 88v-111l-417 225v99l417 227v-111l-297 -167z" />
    <glyph glyph-name="equal" unicode="=" 
d="M475 95h-449v115h449v-115zM475 290h-449v115h449v-115z" />
    <glyph glyph-name="greater" unicode="&#x3e;" 
d="M339 250l-297 167v111l417 -227v-99l-417 -225v111z" />
    <glyph glyph-name="question" unicode="?" 
d="M149 0v171h169l1 -171h-170zM21 531q-3 52 12 96t44 75t71.5 48.5t94.5 17.5q46 0 87.5 -10.5t73 -33.5t50 -59t18.5 -87q0 -48 -18.5 -84t-47.5 -72q-17 -20 -33.5 -40t-31.5 -41q-10 -14 -15 -25.5t-8 -22.5t-4.5 -24t-2.5 -29h-151q-1 36 2 72.5t23 68.5
q12 15 31 37.5t37 47.5t30.5 51t12.5 50q0 27 -13 46.5t-43 19.5q-22 0 -34 -9.5t-18 -24t-7 -32.5t-1 -36h-159z" />
    <glyph glyph-name="at" unicode="@" horiz-adv-x="830" 
d="M503 370q2 22 -2 43.5t-13.5 38t-26 25.5t-40.5 7q-23 -2 -43 -13t-35 -28.5t-24.5 -39.5t-10.5 -46q-3 -50 18 -77t53 -32q28 -4 50 6.5t38 29.5t25 42t11 44zM548 569h98l-53 -308q-3 -14 4 -19t16 -2q13 4 32.5 22.5t35.5 41.5q5 7 11 20t11.5 29t9 34t3.5 36
q2 63 -18.5 113.5t-58.5 86t-91.5 54t-116.5 18.5q-69 0 -127.5 -24t-100.5 -66t-65.5 -100t-23.5 -127q0 -73 26 -132t71 -101t106 -65t131 -23q60 0 111 26t94 65h96q-56 -77 -134 -121.5t-175 -44.5q-84 0 -157 30t-128 83t-86.5 125.5t-31.5 157.5q0 84 31 155
t84.5 123.5t126 82t155.5 29.5q69 0 130.5 -19.5t113.5 -64.5q53 -45 84.5 -102.5t31.5 -129.5q0 -62 -18.5 -115t-61.5 -98q-15 -15 -36.5 -31t-46 -28.5t-50 -20.5t-47.5 -8q-19 0 -33.5 17t-8.5 46l-2 2q-64 -61 -123 -61q-40 0 -71.5 14.5t-53 39.5t-33 58.5t-11.5 71.5
q0 46 15 89t42.5 76t67 53t87.5 20q40 0 72 -14.5t55 -46.5z" />
    <glyph glyph-name="A" unicode="A" horiz-adv-x="556" 
d="M279 614h-2l-51 -336h102zM9 0l164 750h212l163 -750h-178l-25 146h-138l-21 -146h-177z" />
    <glyph glyph-name="B" unicode="B" horiz-adv-x="556" 
d="M220 455q29 2 50 3.5t35 9.5t21 25.5t7 50.5q0 28 -9 42.5t-24.5 21t-36 7t-43.5 0.5v-160zM220 135q33 1 56.5 2t39 9.5t22.5 28t7 57.5q0 33 -9 50t-25.5 25.5t-39.5 10t-51 2.5v-185zM44 0v750h228q50 0 93 -9t75 -31.5t50.5 -59.5t18.5 -94q0 -50 -19.5 -91.5
t-65.5 -66.5v-2q30 -17 49 -34t29.5 -37.5t14.5 -46.5t4 -61q0 -114 -61 -165.5t-168 -51.5h-248z" />
    <glyph glyph-name="C" unicode="C" horiz-adv-x="556" 
d="M339 488v48q0 48 -15.5 72.5t-40.5 24.5q-41 1 -54.5 -20t-13.5 -58l-1 -371q0 -32 14 -49.5t49 -17.5q22 0 35 10.5t20 26.5t8.5 35t1.5 36v68h176v-92q0 -48 -14.5 -88.5t-45 -69.5t-79 -45t-115.5 -16q-61 0 -103.5 16t-69.5 46.5t-39.5 75t-12.5 101.5v308
q0 123 57.5 181t178.5 58q56 0 100.5 -12.5t75.5 -38.5t47.5 -67.5t16.5 -98.5v-63h-176z" />
    <glyph glyph-name="D" unicode="D" horiz-adv-x="556" 
d="M222 135q44 -3 68 4.5t35 25t12.5 45t0.5 65.5v245q0 33 -6.5 51.5t-20 28t-35.5 12t-54 3.5v-480zM46 0v750h191q48 0 101.5 -5t96.5 -30q25 -15 41 -35.5t24 -45t11 -51t3 -53.5v-333q-1 -57 -19 -97.5t-56 -64.5q-35 -23 -75 -29t-81 -6h-237z" />
    <glyph glyph-name="E" unicode="E" 
d="M46 0v750h403v-150h-227v-138h220v-150h-220v-162h239v-150h-415z" />
    <glyph glyph-name="F" unicode="F" 
d="M49 0v750h414v-150h-238v-133h219v-150h-219v-317h-176z" />
    <glyph glyph-name="G" unicode="G" horiz-adv-x="556" 
d="M392 -1l-8 67h-2q-27 -48 -61 -66t-91 -18q-56 0 -93.5 18t-60.5 50.5t-33 76t-10 94.5v308q0 123 57.5 181t178.5 58q113 0 176 -51t63 -166v-56h-176v41q0 48 -10 72t-45 25q-41 1 -54.5 -20t-13.5 -58v-371q0 -32 15 -49.5t50 -17.5q22 0 34.5 8t18.5 21.5t7.5 31
t1.5 35.5v59h-63v135h239v-408h-120z" />
    <glyph glyph-name="H" unicode="H" horiz-adv-x="556" 
d="M41 0v750h176v-288h122v288h176v-750h-176v312h-122v-312h-176z" />
    <glyph glyph-name="I" unicode="I" horiz-adv-x="278" 
d="M51 0v750h176v-750h-176z" />
    <glyph glyph-name="J" unicode="J" horiz-adv-x="444" 
d="M148 250v-95q0 -40 36 -38q20 1 27.5 6t6.5 21l1 606h176v-522q0 -40 -1.5 -81.5t-21.5 -79.5q-28 -52 -75 -68.5t-104 -16.5q-63 0 -112.5 30.5t-65.5 93.5q-7 26 -7.5 51t-0.5 50v43h141z" />
    <glyph glyph-name="K" unicode="K" horiz-adv-x="556" 
d="M44 0v750h176v-300h2l130 300h180l-160 -331l170 -419h-186l-97 261l-39 -76v-185h-176z" />
    <glyph glyph-name="L" unicode="L" horiz-adv-x="444" 
d="M37 0v750h176v-600h215v-150h-391z" />
    <glyph glyph-name="M" unicode="M" horiz-adv-x="778" 
d="M49 0v750h248l91 -443h2l94 443h246v-750h-168l18 588h-2l-124 -588h-131l-121 588h-2l16 -588h-167z" />
    <glyph glyph-name="N" unicode="N" horiz-adv-x="556" 
d="M196 420l-2 -2l16 -418h-167v750h181l136 -419h3l-17 419h167v-750h-180z" />
    <glyph glyph-name="O" unicode="O" horiz-adv-x="556" 
d="M341 532q0 17 -1.5 35t-7.5 32.5t-18.5 24t-34.5 9.5q-21 0 -33.5 -9.5t-19 -24t-8.5 -32.5t-2 -35v-308q0 -16 2 -35t8.5 -35t19.5 -26.5t34 -10.5t33.5 10.5t18.5 26.5t7.5 35t1.5 35v308zM517 239q0 -63 -12 -111.5t-40 -80.5t-73 -48.5t-112 -16.5t-112.5 16.5
t-74 48.5t-41 80.5t-12.5 111.5v305q0 109 62 166.5t178 57.5t176.5 -57.5t60.5 -166.5v-305z" />
    <glyph glyph-name="P" unicode="P" horiz-adv-x="556" 
d="M229 427q25 1 51.5 1.5t47.5 17.5q14 15 18 35.5t4 40.5q0 11 -1 24t-4.5 25t-10 22.5t-17.5 15.5q-13 5 -30.5 5.5t-38.5 0.5h-19v-188zM53 0v750h209q25 0 55 -2t59.5 -8t56 -18.5t44.5 -33.5q31 -35 40 -76t9 -87q0 -30 -4 -61.5t-15.5 -59.5t-30.5 -51t-49 -37
q-23 -11 -47.5 -16t-49.5 -6.5t-50.5 -1t-50.5 -0.5v-292h-176z" />
    <glyph glyph-name="Q" unicode="Q" horiz-adv-x="556" 
d="M216 224q0 -16 2 -35t8.5 -35t19.5 -26.5t34 -10.5t33.5 10.5t18.5 26.5t7.5 35t1.5 35v308q0 17 -1.5 35t-7.5 32.5t-18.5 24t-34.5 9.5q-21 0 -33.5 -9.5t-19 -24t-8.5 -32.5t-2 -35v-308zM517 239q0 -60 -11 -106.5t-38 -79.5l82 -88l-103 -88l-99 111q-8 -2 -16 -2.5
t-16 -1.5t-17 -1.5t-19 -0.5q-67 0 -112.5 16.5t-74 48.5t-41 80.5t-12.5 111.5v305q0 109 62 166.5t178 57.5t176.5 -57.5t60.5 -166.5v-305z" />
    <glyph glyph-name="R" unicode="R" horiz-adv-x="556" 
d="M218 431h60q19 0 31.5 8t19.5 21t9.5 30t2.5 34q0 33 -7 52t-22 28t-38.5 10.5t-55.5 0.5v-184zM218 0h-176v750h257q109 0 162.5 -47.5t53.5 -159.5q0 -60 -19 -103t-74 -68v-2q37 -8 61 -33t26 -64q2 -23 3.5 -56t3 -67t3.5 -65t6 -49q7 -17 17 -26v-10h-192
q-4 11 -6.5 21.5t-3.5 21.5q-2 50 -1 94.5t-3 79.5t-16.5 56t-43.5 23h-58v-296z" />
    <glyph glyph-name="S" unicode="S" 
d="M179 251v-53q0 -16 3 -30.5t11 -26t21.5 -18t34.5 -6.5q31 0 45 23t14 52q0 24 -9 41t-23 30t-31.5 23t-34.5 21q-41 23 -74.5 46t-58.5 52q-24 29 -37.5 64.5t-13.5 85.5q0 106 59 159.5t162 53.5q57 0 100.5 -18t71.5 -50.5t41 -77t10 -97.5h-162q-1 16 -2 34.5
t-6 34.5t-16.5 26.5t-33.5 12.5q-27 2 -42.5 -11.5t-18.5 -38.5q-4 -34 11.5 -54t41.5 -38q50 -32 91.5 -54.5t72.5 -51.5t48 -69.5t17 -109.5q0 -109 -58 -166.5t-168 -57.5q-60 0 -103.5 15.5t-71.5 42t-41 60.5t-13 71v80h163z" />
    <glyph glyph-name="T" unicode="T" 
d="M22 750h456v-150h-142v-600h-176v600h-138v150z" />
    <glyph glyph-name="U" unicode="U" horiz-adv-x="556" 
d="M42 750h176v-566q0 -14 2.5 -26t9 -21t18.5 -14.5t31 -5.5q17 0 28.5 6.5t18.5 17t10 23.5t3 25v561h176v-543q0 -48 -11.5 -89t-39.5 -71t-73.5 -47.5t-112.5 -17.5q-112 0 -174 54.5t-62 170.5v543z" />
    <glyph glyph-name="V" unicode="V" horiz-adv-x="556" 
d="M174 0l-163 750h176l90 -526h2l90 526h176l-164 -750h-207z" />
    <glyph glyph-name="W" unicode="W" horiz-adv-x="778" 
d="M544 224h2l55 526h167l-125 -750h-198l-54 528h-2l-58 -528h-195l-126 750h170l53 -527l2 2l71 525h170z" />
    <glyph glyph-name="X" unicode="X" horiz-adv-x="556" 
d="M279 522h2l80 228h176l-156 -376l163 -374h-176l-85 224h-2l-100 -224h-168l167 374l-158 376h175z" />
    <glyph glyph-name="Y" unicode="Y" horiz-adv-x="556" 
d="M277 505h2l90 245h176l-181 -435v-315h-176v315l-177 435h178z" />
    <glyph glyph-name="Z" unicode="Z" horiz-adv-x="444" 
d="M26 750h398v-140l-218 -460h228v-150h-424v134l222 466h-206v150z" />
    <glyph glyph-name="bracketleft" unicode="[" horiz-adv-x="278" 
d="M42 750h220v-95h-81v-747h81v-95h-220v937z" />
    <glyph glyph-name="backslash" unicode="\" horiz-adv-x="250" 
d="M186 -94l-228 844h110l225 -844h-107z" />
    <glyph glyph-name="bracketright" unicode="]" horiz-adv-x="278" 
d="M236 -187h-220v95h81v747h-81v95h220v-937z" />
    <glyph glyph-name="asciicircum" unicode="^" 
d="M15 373l176 377h118l176 -377l-102 -47l-134 279l-132 -279z" />
    <glyph glyph-name="underscore" unicode="_" 
d="M0 -125v50h500v-50h-500z" />
    <glyph glyph-name="grave" unicode="`" horiz-adv-x="333" 
d="M170 782l100 -148h-137l-171 148h208z" />
    <glyph glyph-name="a" unicode="a" 
d="M301 272q-24 -13 -44.5 -21.5t-35.5 -19.5t-26 -27t-11 -45q0 -26 15 -43t44 -17q18 0 29 8t17.5 21t9 27.5t2.5 28.5v88zM307 50q-30 -33 -60 -50.5t-77 -17.5q-68 0 -107 41.5t-39 108.5q0 48 12 80t31.5 54t44.5 34.5t51 21.5t50.5 15.5t44 15.5t31.5 22.5t12 36.5
t-13 40.5t-37 17.5q-22 0 -33.5 -7t-17.5 -19t-7.5 -27.5t-2.5 -33.5h-159q-3 52 12.5 89t44.5 60t69.5 33.5t88.5 10.5q59 0 99.5 -9.5t66 -30t37 -53t11.5 -78.5v-343q0 -16 4 -31.5t9 -30.5h-155z" />
    <glyph glyph-name="b" unicode="b" 
d="M305 354q0 12 -0.5 28t-5 30t-14 23.5t-26.5 9.5q-32 0 -42 -28.5t-10 -69.5v-132q0 -18 2 -36.5t7.5 -33.5t15 -24t24.5 -9q19 0 29 10t14.5 25t5 31.5t0.5 30.5v145zM207 514h2q19 36 51.5 49t67.5 13q39 0 65.5 -17.5t42 -45.5t22 -62t6.5 -67v-194q0 -36 -5.5 -72
t-20.5 -66t-42.5 -49.5t-70.5 -20.5q-38 2 -72.5 22.5t-54.5 59.5h-2v-64h-148v750h159v-236z" />
    <glyph glyph-name="c" unicode="c" 
d="M306 352l-1 10q-2 16 -2.5 32t-3.5 32q-5 17 -15 26t-28 9q-31 0 -39.5 -20.5t-8.5 -47.5v-231q0 -26 10 -45.5t41 -19.5q22 0 32.5 14.5t14 35t3 42.5t-0.5 38h154q0 -12 -1 -30.5t-2.5 -37.5t-4 -36.5t-5.5 -28.5q-16 -53 -57 -78.5t-93 -30.5q-11 -1 -23 -2t-30 -1
q-43 0 -79 9t-62.5 30t-41 54t-14.5 81v228q0 54 13.5 90.5t39 59t62 32.5t82.5 10q118 -2 167.5 -55t42.5 -169h-150z" />
    <glyph glyph-name="d" unicode="d" 
d="M200 202q0 -12 0.5 -28t5 -29.5t14 -23t26.5 -9.5q32 0 40.5 28t8.5 69v132q0 18 -1.5 37t-6.5 34t-14 24.5t-24 9.5q-19 0 -29 -10.5t-14.5 -25.5t-5 -32.5t-0.5 -30.5v-145zM306 0v65h-2q-22 -41 -55.5 -62t-68.5 -21q-44 1 -71 20.5t-42 49.5t-20.5 66t-5.5 72v194
q0 33 6.5 67t22 62t42 45.5t65.5 17.5q32 0 61.5 -15t54.5 -52h2v241h159v-750h-148z" />
    <glyph glyph-name="e" unicode="e" 
d="M307 359v55q0 7 -2.5 17t-9 19t-17 15t-25.5 6q-34 0 -45 -23t-11 -52v-37h110zM197 254v-98q0 -23 11.5 -40t37.5 -19q22 -1 33 7.5t16 22.5t5.5 31.5t1.5 35.5h158q6 -108 -49.5 -159.5t-158.5 -52.5q-43 0 -81.5 9t-68 29.5t-47 54t-17.5 81.5v228q0 54 16 90.5
t44.5 59t68 32.5t85.5 10q42 0 80.5 -8t68 -27t47.5 -50.5t18 -76.5v-160h-269z" />
    <glyph glyph-name="f" unicode="f" horiz-adv-x="333" 
d="M83 444h-64v115h63l1 49q1 80 40.5 111t116.5 31h70v-115h-34q-14 0 -24 -4t-10 -15v-57h68v-115h-68v-444h-159v444z" />
    <glyph glyph-name="g" unicode="g" 
d="M199 204q0 -23 9.5 -41.5t37.5 -18.5q16 0 25.5 6.5t14.5 17t6.5 23.5t1.5 26v155q0 29 -10 51.5t-42 22.5q-15 0 -24 -9t-13.5 -21.5t-5 -27t-0.5 -25.5v-159zM195 -31q0 -15 1.5 -25.5t7 -17t16 -9t27.5 -1.5q25 2 36 10.5t12 35.5v113h-2q-24 -28 -52.5 -44.5
t-60.5 -16.5q-38 0 -64.5 15.5t-43 40.5t-24.5 56.5t-8 63.5v194q0 33 6.5 67t22.5 62t42.5 45.5t65.5 17.5q42 -2 74 -22t52 -62h2v68h148v-571q0 -49 -16.5 -83t-45.5 -55t-67.5 -30.5t-83.5 -9.5t-82 6.5t-63.5 24t-42 48.5t-16.5 79h159z" />
    <glyph glyph-name="h" unicode="h" 
d="M205 516h2q28 35 57.5 47.5t63.5 12.5q29 0 52.5 -9.5t40 -27t25.5 -40.5t9 -50v-449h-159v398q0 24 -8.5 36t-36.5 12q-26 0 -36 -19t-10 -40v-387h-159v750h159v-234z" />
    <glyph glyph-name="i" unicode="i" horiz-adv-x="278" 
d="M60 615v135h159v-135h-159zM60 0v560h159v-560h-159z" />
    <glyph glyph-name="j" unicode="j" horiz-adv-x="278" 
d="M64 615v135h159v-135h-159zM14 -74h20q20 2 25 18t5 33v583h159v-574q0 -38 -5 -69.5t-19.5 -54.5t-40.5 -36.5t-68 -14.5h-76v115z" />
    <glyph glyph-name="k" unicode="k" 
d="M40 0v750h159v-377h2l109 187h174l-158 -225l160 -335h-167l-93 216l-27 -36v-180h-159z" />
    <glyph glyph-name="l" unicode="l" horiz-adv-x="278" 
d="M60 0v750h159v-750h-159z" />
    <glyph glyph-name="m" unicode="m" horiz-adv-x="722" 
d="M186 560v-65h2q20 38 53.5 58.5t65.5 22.5q38 2 71 -18.5t47 -55.5h2q22 38 52 56t64 18q28 0 54 -7.5t45.5 -22.5t31 -37t11.5 -50v-459h-159v400q-2 20 -10.5 34t-31.5 12q-43 -2 -43 -46v-400h-159v400q-4 18 -11 32t-27 14q-24 0 -34.5 -11.5t-12.5 -34.5v-400h-159
v560h148z" />
    <glyph glyph-name="n" unicode="n" 
d="M197 560v-70h2q6 16 17 31.5t25.5 27.5t32 19.5t36.5 7.5q28 0 54 -7.5t45.5 -22.5t31 -37t11.5 -50v-459h-159v400q-2 20 -10.5 34t-31.5 12q-43 -2 -43 -46v-400h-159v560h148z" />
    <glyph glyph-name="o" unicode="o" 
d="M201 146q2 -24 13 -36.5t36 -12.5t36 12.5t13 36.5v250q0 27 -10.5 46t-38.5 19t-38.5 -19t-10.5 -46v-250zM42 384q0 54 15 90.5t42.5 59t66 32.5t84.5 10q106 0 157 -48.5t51 -143.5v-228q-6 -95 -61.5 -134.5t-146.5 -39.5q-43 0 -80.5 9t-66 30t-45 54t-16.5 81v228z
" />
    <glyph glyph-name="p" unicode="p" 
d="M299 354q0 12 -0.5 28t-5 30.5t-14 24t-26.5 9.5q-32 0 -42 -29t-10 -70v-132q0 -18 2 -36.5t7.5 -33.5t15 -24t24.5 -9q19 0 29 10t14.5 25t5 31.5t0.5 30.5v145zM190 560v-68h2q23 42 55.5 62t74.5 22q39 0 65.5 -17.5t42 -45.5t22 -62t6.5 -67v-194q0 -36 -5.5 -72
t-20.5 -66t-42.5 -49.5t-70.5 -20.5q-21 -1 -54.5 14.5t-61.5 56.5h-2v-242h-159v749h148z" />
    <glyph glyph-name="q" unicode="q" 
d="M292 341q0 18 -2 37t-7.5 34t-15 24.5t-24.5 9.5q-19 0 -29 -10.5t-14.5 -25.5t-5 -32.5t-0.5 -30.5v-145q0 -12 0.5 -28t5 -29.5t14 -23t26.5 -9.5q32 0 42 28t10 69v132zM451 -188h-159v241h-2q-28 -41 -61.5 -56.5t-54.5 -14.5q-44 1 -71 20.5t-42 49.5t-20.5 66
t-5.5 72v194q0 33 6.5 67t22 62t42 45.5t65.5 17.5q42 -2 74.5 -22t55.5 -62h2v68h148v-748z" />
    <glyph glyph-name="r" unicode="r" horiz-adv-x="333" 
d="M190 560v-85h2q14 45 43.5 73t79.5 28v-180q-12 2 -24 3t-24 1q-34 0 -49 -10t-17 -45v-345h-159v560h148z" />
    <glyph glyph-name="s" unicode="s" horiz-adv-x="444" 
d="M275 394q-2 14 -3 28t-6 25t-15 17.5t-29 6.5q-23 0 -38 -11t-15 -36q0 -23 15.5 -35.5t33.5 -21.5q39 -18 77 -33.5t68.5 -37.5t49.5 -54t19 -82q0 -47 -16.5 -80.5t-45.5 -55.5t-67.5 -32t-82.5 -10q-47 0 -86.5 10.5t-67 33.5t-42 58.5t-12.5 86.5h152q-1 -15 1 -30
t8.5 -27t18 -19.5t29.5 -7.5q26 0 41.5 13t15.5 40t-21 43q-24 13 -51.5 24.5t-55 24.5t-52.5 29t-44 37q-40 46 -40 105q0 45 16.5 78t45 54t66 31t79.5 10q43 0 81 -11t66 -33.5t43 -57t13 -80.5h-149z" />
    <glyph glyph-name="t" unicode="t" horiz-adv-x="333" 
d="M12 445v115h63v160h159v-160h76v-115h-76v-295q0 -24 9.5 -31.5t25.5 -7.5q14 2 21 2h20v-112q-26 -4 -51 -6.5t-51 -2.5q-65 0 -99 32.5t-34 96.5v324h-63z" />
    <glyph glyph-name="u" unicode="u" 
d="M301 0v69h-2q-6 -16 -17 -31.5t-25.5 -28t-32 -20t-36.5 -7.5q-69 0 -105.5 30.5t-36.5 87.5v460h159v-401q1 -10 3 -18.5t6 -15.5t11.5 -10.5t18.5 -2.5q21 1 33.5 13t12.5 34v401h159v-560h-148z" />
    <glyph glyph-name="v" unicode="v" horiz-adv-x="444" 
d="M222 198h2l57 362h155l-123 -560h-182l-122 560h160z" />
    <glyph glyph-name="w" unicode="w" horiz-adv-x="667" 
d="M461 198h2l44 362h152l-108 -560h-170l-45 291h-2l-48 -291h-170l-107 560h154l45 -362h2l58 362h136z" />
    <glyph glyph-name="x" unicode="x" horiz-adv-x="444" 
d="M431 560l-125 -280l129 -280h-159l-51 161h-2l-51 -161h-163l131 280l-125 280h158l47 -157h2l50 157h159z" />
    <glyph glyph-name="y" unicode="y" horiz-adv-x="444" 
d="M220 198h2l55 362h156l-101 -479q-15 -57 -25.5 -106.5t-30.5 -85.5t-56 -57t-101 -21q-21 0 -36 2.5t-27 2.5v118q8 -1 15.5 -1.5t15.5 -2.5q6 -1 14.5 0t16 4.5t12.5 9.5t5 14q0 20 -6.5 47.5t-11.5 47.5l-111 507h160z" />
    <glyph glyph-name="z" unicode="z" horiz-adv-x="389" 
d="M25 560h350v-116l-182 -319h182v-125h-361v111l182 324h-171v125z" />
    <glyph glyph-name="braceleft" unicode="{" horiz-adv-x="274" 
d="M66 216q0 44 -15.5 70t-59.5 37v2q22 3 36.5 13t23 25t12 33.5t3.5 37.5v184q0 32 6 60t33 47q15 11 31.5 16t37 7t46.5 2h63v-2q-23 -5 -38 -15.5t-23 -25t-11 -32.5t-3 -39v-184q0 -53 -15.5 -84t-66.5 -42v-2q27 -4 43 -16.5t24.5 -31t11.5 -41t3 -46.5v-172
q0 -19 3 -36t11 -31.5t23 -25t38 -16.5v-2q-35 -1 -64 -1t-52 3t-41 10.5t-31 21.5q-21 21 -25 52.5t-4 61.5v162z" />
    <glyph glyph-name="bar" unicode="|" horiz-adv-x="250" 
d="M196 750v-1000h-142v1000h142z" />
    <glyph glyph-name="braceright" unicode="}" horiz-adv-x="274" 
d="M208 435q0 -20 3.5 -38t12 -33t23 -25t36.5 -13v-2q-25 -3 -39.5 -12t-22.5 -23t-10.5 -32.5t-2.5 -40.5v-162q0 -30 -4 -61.5t-25 -52.5q-13 -14 -31 -21.5t-41 -10.5t-52 -3t-64 1v2q45 11 60 39t15 71v171q0 25 2.5 46.5t11 38.5t25 29.5t43.5 20.5v2
q-51 11 -66.5 42.5t-15.5 83.5v185q0 45 -16.5 74t-58.5 37v2h62q27 0 47.5 -1.5t37 -7t31.5 -15.5q27 -20 33 -48t6 -60v-183z" />
    <glyph glyph-name="asciitilde" unicode="~" 
d="M475 286q-12 -20 -24 -41t-27 -38t-34 -27.5t-44 -10.5q-23 0 -50 10.5t-53.5 22.5t-48.5 22.5t-34 10.5q-15 0 -26.5 -8t-20.5 -20t-16 -26.5t-14 -27.5l-57 74q10 21 23 43t29.5 40t36.5 29.5t44 11.5t50.5 -10.5t51.5 -22.5t47 -22.5t38 -10.5q14 0 24.5 7.5
t18.5 18.5t15 24t14 24z" />
    <glyph glyph-name="Euro" 
d="M459 26q-28 -23 -63.5 -34t-73.5 -11q-61 0 -105.5 24t-75 64.5t-48 92.5t-24.5 108h-64l17 62h41v29v20q0 10 1 20h-59l17 62h47q10 74 33 128t56.5 89.5t75 52.5t87.5 17q51 0 96 -15t80 -51l-41 -145q-6 12 -15.5 25.5t-23.5 24.5t-33 18.5t-43 7.5q-25 0 -43 -13
t-30.5 -34.5t-20 -49t-11.5 -55.5h198l-17 -62h-187q-1 -15 -1 -28v-24v-17h168l-17 -62h-145q4 -28 11.5 -55.5t20 -49t30.5 -35t43 -13.5q9 0 23.5 1.5t31 8.5t33.5 22t31 42v-165z" />
    <glyph glyph-name="Euro" unicode="&#x20ac;" 
d="M459 26q-28 -23 -63.5 -34t-73.5 -11q-61 0 -105.5 24t-75 64.5t-48 92.5t-24.5 108h-64l17 62h41v29v20q0 10 1 20h-59l17 62h47q10 74 33 128t56.5 89.5t75 52.5t87.5 17q51 0 96 -15t80 -51l-41 -145q-6 12 -15.5 25.5t-23.5 24.5t-33 18.5t-43 7.5q-25 0 -43 -13
t-30.5 -34.5t-20 -49t-11.5 -55.5h198l-17 -62h-187q-1 -15 -1 -28v-24v-17h168l-17 -62h-145q4 -28 11.5 -55.5t20 -49t30.5 -35t43 -13.5q9 0 23.5 1.5t31 8.5t33.5 22t31 42v-165z" />
    <glyph glyph-name="exclamdown" unicode="&#xa1;" horiz-adv-x="333" 
d="M251 389h-169v171h169v-171zM212 319l43 -320v-188h-176v188l43 320h90z" />
    <glyph glyph-name="cent" unicode="&#xa2;" 
d="M199 174v-12t0.5 -19.5t2.5 -19.5t6 -11l58 358q-2 0 -6 1t-10 1q-8 0 -16.5 -3t-16.5 -12t-13 -26t-5 -45v-212zM372 685l-26 -123q63 -20 89 -71t21 -139h-141q0 24 -1.5 48.5t-9.5 47.5q-2 5 -5 7l-58 -366q8 -2 14 -2q33 0 45.5 14.5t14.5 46.5q2 20 2.5 39.5
t1.5 39.5h143q0 -55 -7.5 -100t-28.5 -77.5t-60 -50t-102 -17.5h-19t-19 2l-27 -131h-86l28 147q-34 16 -53 38.5t-28.5 49.5t-11.5 57.5t-2 63.5v131q0 35 2 66.5t11.5 59.5t29 50.5t55.5 39.5q29 13 57.5 16.5t58.5 3.5l26 109h86z" />
    <glyph glyph-name="sterling" unicode="&#xa3;" 
d="M5 334v62h64q-26 41 -35.5 84t-10.5 91q-1 47 17.5 83.5t49.5 62t71 38.5t84 13q89 0 147.5 -46t67.5 -138l1 -63h-153q0 19 -1 40.5t-7 39.5t-19.5 30t-38.5 12q-18 0 -30 -8t-18.5 -21t-9 -29t-2.5 -31q0 -41 12 -80.5t24 -77.5h143v-62h-126q1 -11 3 -23.5t2 -23.5
q0 -29 -10.5 -55.5t-27 -50.5t-37.5 -44.5t-43 -36.5v-2q51 30 109 30q42 0 71 -10t51 -10q48 0 87 34l33 -125q-32 -15 -61.5 -25t-66.5 -10q-23 0 -45 5.5t-44 11.5t-44 11.5t-45 5.5q-59 0 -111 -32l-56 107q44 30 74 77.5t30 101.5q0 17 -2 32.5t-7 31.5h-90z" />
    <glyph glyph-name="currency" unicode="&#xa4;" 
d="M254 187q26 0 48.5 10t39 27t26 39.5t9.5 46.5t-9.5 46.5t-26 39.5t-39 27t-48.5 10t-48.5 -10t-39 -27t-26 -39.5t-9.5 -46.5t9.5 -46.5t26 -39.5t39 -27t48.5 -10zM44 181q-18 32 -27.5 61t-9.5 67q0 37 9 68.5t28 62.5l-44 43l79 80l44 -44q29 17 62.5 27.5t66.5 10.5
q73 0 134 -38l44 44l79 -80l-44 -43q17 -30 26.5 -62t9.5 -68q0 -34 -9 -67.5t-27 -61.5l44 -44l-79 -79l-44 44q-30 -18 -62 -28.5t-67 -10.5q-74 0 -134 39l-44 -44l-79 79z" />
    <glyph glyph-name="yen" unicode="&#xa5;" 
d="M338 315v-32h91v-62h-91v-49h91v-62h-91v-110h-180v110h-89v62h89v49h-89v62h89v31l-175 436h192l74 -245h2l76 245h190z" />
    <glyph glyph-name="brokenbar" unicode="&#xa6;" horiz-adv-x="250" 
d="M196 675v-350h-142v350h142zM54 175h142v-350h-142v350z" />
    <glyph glyph-name="section" unicode="&#xa7;" 
d="M189 397q-11 -8 -20 -20.5t-9 -26.5q0 -27 19.5 -45t38.5 -34q23 -19 46 -36t46 -36q12 14 19 24.5t7 29.5q0 20 -7.5 27.5t-15.5 17.5q-28 28 -60 51.5t-64 47.5zM186 7q-1 -13 1.5 -26.5t8.5 -24.5t16.5 -18t26.5 -7q30 0 47 13t15 36t-15 41.5t-32.5 35.5t-44 33
t-49.5 34t-49 38t-42.5 45.5t-30 57t-11.5 71.5q0 42 22 82.5t57 64.5q-23 20 -34 48t-11 59q0 32 12 63.5t36 57t60.5 41.5t85.5 16q40 0 76 -11t62.5 -33t41 -55t12.5 -76h-143q2 28 -10 44t-41 16q-48 0 -48 -47q0 -25 20 -45q32 -32 74.5 -61.5t81.5 -61.5t66 -71
t27 -92q0 -42 -11.5 -69t-25.5 -43.5t-27.5 -24.5t-16.5 -11q25 -22 39 -53t14 -64q0 -51 -16 -87.5t-45.5 -60.5t-69.5 -35t-88 -11q-43 0 -77.5 14t-58.5 39t-37 60.5t-12 77.5h144z" />
    <glyph glyph-name="dieresis" unicode="&#xa8;" horiz-adv-x="333" 
d="M138 770v-130h-158v130h158zM196 770h158v-130h-158v130z" />
    <glyph glyph-name="copyright" unicode="&#xa9;" horiz-adv-x="830" 
d="M615 306q-4 -36 -20.5 -64t-41 -48t-56.5 -30.5t-66 -10.5q-49 0 -89 17.5t-68.5 48.5t-44 72t-15.5 89q0 49 15 90.5t42.5 71.5t67.5 47t90 17q72 0 122.5 -39t63.5 -110h-89q-7 37 -34 55t-65 18q-32 0 -54.5 -12t-37 -32t-21.5 -46.5t-7 -55.5q0 -28 7 -55t21.5 -48
t36.5 -34t53 -13q18 0 35.5 4.5t32 13.5t23.5 22.5t10 31.5h89zM413 672q-66 0 -120.5 -21.5t-93 -60.5t-59.5 -93.5t-21 -120.5q0 -67 21 -122t59.5 -94t93 -60.5t120.5 -21.5t121 22t94 62t61 95.5t22 122.5q0 66 -22 120t-61 92t-94 59t-121 21zM415 -18
q-104 0 -178.5 35t-122.5 91.5t-70.5 126.5t-22.5 141q0 68 22.5 138t70.5 126.5t122.5 92t178.5 35.5q97 0 170.5 -32.5t123 -87t75 -125.5t25.5 -147q0 -82 -28 -153.5t-79.5 -125t-124.5 -84.5t-162 -31z" />
    <glyph glyph-name="ordfeminine" unicode="&#xaa;" horiz-adv-x="300" 
d="M187 586q-15 -8 -28 -13t-22.5 -12t-14.5 -16.5t-5 -26.5q0 -16 8 -26.5t25 -10.5q22 0 29.5 17.5t7.5 34.5v53zM196 422l-5 30h-1q-19 -20 -38 -30t-48 -10q-42 0 -68 24.5t-26 65.5q0 24 5 40t22 36q10 15 30 23.5t42 16.5q23 7 42.5 13.5t30.5 17.5q2 5 3.5 9.5
t1.5 11.5q0 29 -32 29q-11 0 -19.5 -2.5t-13.5 -13.5q-4 -7 -4 -15t-1 -16h-99q-2 31 7.5 53.5t27.5 36t43 20t55 6.5t55 -4.5t42 -15.5t26.5 -31.5t9.5 -51.5v-205q0 -10 2 -19.5t5 -18.5h-95z" />
    <glyph glyph-name="guillemotleft" unicode="&#xab;" 
d="M277 239v146l180 120v-131l-102 -63l102 -58v-130zM37 239v146l180 120v-131l-101 -63l101 -58v-130z" />
    <glyph glyph-name="logicalnot" unicode="&#xac;" 
d="M360 290h-334v115h449v-290h-115v175z" />
    <glyph glyph-name="registered" unicode="&#xae;" horiz-adv-x="830" 
d="M450 404q18 0 31 2t22 8.5t13.5 19t4.5 32.5q0 17 -8.5 27t-22 14.5t-30 5.5t-31.5 1h-103v-110h124zM326 161h-93v425h238q67 -2 104.5 -30.5t37.5 -100.5q0 -58 -29.5 -84t-86.5 -30l103 -180h-107l-94 170h-73v-170zM413 672q-66 0 -120.5 -21.5t-93 -60.5
t-59.5 -93.5t-21 -120.5q0 -67 21 -122t59.5 -94t93 -60.5t120.5 -21.5t121 22t94 62t61 95.5t22 122.5q0 66 -22 120t-61 92t-94 59t-121 21zM415 -18q-104 0 -178.5 35t-122.5 91.5t-70.5 126.5t-22.5 141q0 68 22.5 138t70.5 126.5t122.5 92t178.5 35.5q97 0 170.5 -32.5
t123 -87t75 -125.5t25.5 -147q0 -82 -28 -153.5t-79.5 -125t-124.5 -84.5t-162 -31z" />
    <glyph glyph-name="macron" unicode="&#xaf;" horiz-adv-x="333" 
d="M-21 663v90h376v-90h-376z" />
    <glyph glyph-name="macron" unicode="&#x2c9;" horiz-adv-x="333" 
d="M-21 663v90h376v-90h-376z" />
    <glyph glyph-name="degree" unicode="&#xb0;" horiz-adv-x="400" 
d="M244 600q0 18 -13 31t-31 13t-31 -13t-13 -31t13 -31t31 -13t31 13t13 31zM350 600q0 -31 -12 -58.5t-32.5 -47.5t-47.5 -32t-58 -12t-58.5 12t-47.5 32t-32 47.5t-12 58.5t11.5 58t32 47.5t48 32.5t58.5 12t58 -12t47.5 -32.5t32.5 -47.5t12 -58z" />
    <glyph glyph-name="plusminus" unicode="&#xb1;" 
d="M26 103h449v-115h-449v115zM193 510h115v-118h167v-115h-167v-125h-115v125h-167v115h167v118z" />
    <glyph glyph-name="twosuperior" unicode="&#xb2;" horiz-adv-x="300" 
d="M108 587h-103v24q0 67 37.5 103t111.5 36q66 0 103.5 -30.5t37.5 -93.5q0 -42 -14.5 -70t-46.5 -59l-42 -37q-7 -6 -17 -15.5t-20 -20.5t-17.5 -22.5t-9.5 -20.5h168v-81h-292v15q0 28 8.5 54t23 50t32.5 45.5t38 41.5l49 48q18 18 25 35t7 42q0 8 -2 16.5t-7 14.5
t-13 10t-19 3q-13 -1 -20.5 -8t-11.5 -17t-5 -21t-1 -20v-22z" />
    <glyph glyph-name="threesuperior" unicode="&#xb3;" horiz-adv-x="300" 
d="M94 565q17 1 35 2t32 10q11 8 15.5 23.5t4.5 27.5q0 19 -7.5 32.5t-30.5 13.5q-14 0 -21 -6.5t-10 -17.5q-3 -10 -3 -22q0 -11 -1 -20h-104v33q0 25 12.5 45.5t33 34.5t45.5 21.5t51 7.5q63 0 101 -27t38 -89q0 -35 -15.5 -60t-50.5 -40v-2q22 -5 37 -16t24 -26
t12.5 -32.5t3.5 -35.5q0 -69 -39.5 -101t-110.5 -32q-67 0 -104.5 32.5t-37.5 92.5v31h103q1 -11 1 -25t3 -27q3 -12 11.5 -20.5t25.5 -8.5q13 0 21 5.5t12 14t5.5 18.5t1.5 20q0 15 -4.5 34.5t-20.5 28.5q-15 8 -33.5 7t-35.5 1v72z" />
    <glyph glyph-name="acute" unicode="&#xb4;" horiz-adv-x="333" 
d="M371 782l-171 -148h-137l100 148h208z" />
    <glyph glyph-name="mu" unicode="&#xb5;" 
d="M301 0v69h-2q-5 -14 -14 -28t-21.5 -25t-27.5 -17.5t-31 -6.5v-181h-159v749h159v-401q1 -10 3 -18.5t6 -15.5t11.5 -10.5t18.5 -2.5q21 1 33.5 13t12.5 34v401h159v-560h-148z" />
    <glyph glyph-name="mu" unicode="&#x3bc;" 
d="M301 0v69h-2q-5 -14 -14 -28t-21.5 -25t-27.5 -17.5t-31 -6.5v-181h-159v749h159v-401q1 -10 3 -18.5t6 -15.5t11.5 -10.5t18.5 -2.5q21 1 33.5 13t12.5 34v401h159v-560h-148z" />
    <glyph glyph-name="paragraph" unicode="&#xb6;" horiz-adv-x="550" 
d="M381 635h-66v-751h-135v517q-76 0 -122.5 45t-46.5 126q0 51 15 85t42.5 54.5t67.5 29.5t91 9h326v-115h-37v-751h-135v751z" />
    <glyph glyph-name="periodcentered" unicode="&#xb7;" horiz-adv-x="333" 
d="M82 164v171h169v-171h-169z" />
    <glyph glyph-name="periodcentered" unicode="&#x2219;" horiz-adv-x="333" 
d="M82 164v171h169v-171h-169z" />
    <glyph glyph-name="cedilla" unicode="&#xb8;" horiz-adv-x="333" 
d="M59 -158q22 -6 42.5 -13t43.5 -7q19 0 36 9t16 28q-1 17 -13.5 25.5t-26.5 9.5q-21 1 -42 -10l-26 24l56 92h58l-40 -62l2 -2q7 3 16.5 4t20.5 1q17 -1 34 -5.5t30.5 -14t21.5 -24t8 -33.5q0 -24 -12 -42t-30 -30t-40.5 -18t-43.5 -6q-38 0 -67.5 8t-64.5 20z" />
    <glyph glyph-name="onesuperior" unicode="&#xb9;" horiz-adv-x="300" 
d="M148 614h-99v69q19 0 40 3t39.5 10.5t31.5 20.5t18 33h73v-440h-103v304z" />
    <glyph glyph-name="ordmasculine" unicode="&#xba;" horiz-adv-x="300" 
d="M118 510q3 -29 32 -29t32 29v150q0 17 -7 28t-25 11t-25 -11t-7 -28v-150zM15 653q0 64 37.5 89.5t97.5 25.5q135 0 135 -115v-137q-4 -57 -39.5 -80.5t-95.5 -23.5q-28 0 -52.5 5.5t-43 17.5t-29 32t-10.5 49v137z" />
    <glyph glyph-name="guillemotright" unicode="&#xbb;" 
d="M43 123v130l102 58l-102 63v131l180 -120v-146zM283 123v130l101 58l-101 63v131l180 -120v-146z" />
    <glyph glyph-name="onequarter" unicode="&#xbc;" horiz-adv-x="750" 
d="M590 161v146h-2l-79 -146h81zM113 614h-99v69q19 0 40 3t39.5 10.5t31.5 20.5t18 33h73v-440h-103v304zM130 0l410 750h84l-407 -750h-87zM428 170l152 270h113v-279h43v-75h-43v-86h-103v86h-162v84z" />
    <glyph glyph-name="onehalf" unicode="&#xbd;" horiz-adv-x="750" 
d="M109 614h-99v69q19 0 40 3t39.5 10.5t31.5 20.5t18 33h73v-440h-103v304zM108 0l410 750h84l-407 -750h-87zM552 287h-103v24q0 67 37.5 103t111.5 36q66 0 103.5 -30.5t37.5 -93.5q0 -42 -14.5 -70t-46.5 -59l-42 -37q-7 -6 -17 -15.5t-20 -20.5t-17.5 -22.5t-9.5 -20.5
h168v-81h-292v15q0 28 8.5 54t23 50t32.5 45.5t38 41.5l49 48q18 18 25 35t7 42q0 8 -2 16.5t-7 14.5t-13 10t-19 3q-13 -1 -20.5 -8t-11.5 -17t-5 -21t-1 -20v-22z" />
    <glyph glyph-name="threequarters" unicode="&#xbe;" horiz-adv-x="750" 
d="M597 161v146h-2l-79 -146h81zM160 0l410 750h84l-407 -750h-87zM91 565q17 1 35 2t32 10q11 8 15.5 23.5t4.5 27.5q0 19 -7.5 32.5t-30.5 13.5q-14 0 -21 -6.5t-10 -17.5q-3 -10 -3 -22q0 -11 -1 -20h-104v33q0 25 12.5 45.5t33 34.5t45.5 21.5t51 7.5q63 0 101 -27
t38 -89q0 -35 -15.5 -60t-50.5 -40v-2q22 -5 37 -16t24 -26t12.5 -32.5t3.5 -35.5q0 -69 -39.5 -101t-110.5 -32q-67 0 -104.5 32.5t-37.5 92.5v31h103q1 -11 1 -25t3 -27q3 -12 11.5 -20.5t25.5 -8.5q13 0 21 5.5t12 14t5.5 18.5t1.5 20q0 15 -4.5 34.5t-20.5 28.5
q-15 8 -33.5 7t-35.5 1v72zM435 170l152 270h113v-279h43v-75h-43v-86h-103v86h-162v84z" />
    <glyph glyph-name="questiondown" unicode="&#xbf;" 
d="M350 576v-171h-169v171h169zM479 48q3 -53 -12 -96.5t-44.5 -74.5t-71.5 -48.5t-94 -17.5q-46 0 -87.5 10.5t-73 33.5t-50 59t-18.5 87q0 48 18.5 84t47.5 72q17 20 33.5 40t31.5 41q10 14 15 25.5t8 22.5t4 23.5t3 29.5h151q1 -36 -2 -72.5t-23 -68.5q-12 -15 -31 -37.5
t-37 -47.5t-30.5 -51t-12.5 -50q0 -27 13 -46.5t43 -19.5q22 0 34 9.5t18 24t7 32.5t1 36h159z" />
    <glyph glyph-name="Agrave" unicode="&#xc0;" horiz-adv-x="556" 
d="M279 614h-2l-51 -336h102zM282 972l100 -148h-137l-171 148h208zM9 0l164 750h212l163 -750h-178l-25 146h-138l-21 -146h-177z" />
    <glyph glyph-name="Aacute" unicode="&#xc1;" horiz-adv-x="556" 
d="M279 614h-2l-51 -336h102zM483 972l-171 -148h-137l100 148h208zM9 0l164 750h212l163 -750h-178l-25 146h-138l-21 -146h-177z" />
    <glyph glyph-name="Acircumflex" unicode="&#xc2;" horiz-adv-x="556" 
d="M279 614h-2l-51 -336h102zM186 952h165l121 -148h-148l-55 75l-56 -75h-147zM9 0l164 750h212l163 -750h-178l-25 146h-138l-21 -146h-177z" />
    <glyph glyph-name="Atilde" unicode="&#xc3;" horiz-adv-x="556" 
d="M279 614h-2l-51 -336h102zM349 810q-23 0 -44 5.5t-39 13.5q-17 7 -32.5 12.5t-27.5 5.5q-18 0 -29.5 -13t-14.5 -30h-79q5 25 13 50t22.5 45.5t35.5 33t52 12.5q24 0 44.5 -6t38.5 -13q18 -8 33.5 -14t29.5 -6q15 0 28 11.5t14 25.5h80q-3 -27 -12 -51t-24 -42t-37 -29
t-52 -11zM9 0l164 750h212l163 -750h-178l-25 146h-138l-21 -146h-177z" />
    <glyph glyph-name="Adieresis" unicode="&#xc4;" horiz-adv-x="556" 
d="M279 614h-2l-51 -336h102zM308 960h158v-130h-158v130zM250 960v-130h-158v130h158zM9 0l164 750h212l163 -750h-178l-25 146h-138l-21 -146h-177z" />
    <glyph glyph-name="Aring" unicode="&#xc5;" horiz-adv-x="556" 
d="M279 940q-20 0 -36 -15.5t-16 -36.5t15.5 -36.5t36.5 -15.5t36.5 16t15.5 36t-16 36t-36 16zM279 614h-2l-51 -336h102zM279 775q-23 0 -43.5 9t-36 24.5t-24.5 36t-9 43.5t9 43.5t24.5 35.5t36 24t43.5 9t43.5 -9t35.5 -24t24 -35.5t9 -43.5t-9 -43.5t-24 -36
t-35.5 -24.5t-43.5 -9zM9 0l164 750h212l163 -750h-178l-25 146h-138l-21 -146h-177z" />
    <glyph glyph-name="AE" unicode="&#xc6;" horiz-adv-x="778" 
d="M331 600l-86 -288h102v288h-16zM350 162h-142l-47 -162h-184l271 750h490v-150h-222v-140h213v-150h-213v-160h229v-150h-395v162z" />
    <glyph glyph-name="Ccedilla" unicode="&#xc7;" horiz-adv-x="556" 
d="M240 -16q-54 3 -92.5 20t-62.5 47t-35 73t-11 97v308q0 123 57.5 181t178.5 58q56 0 100.5 -12.5t75.5 -38.5t47.5 -67.5t16.5 -98.5v-63h-176v48q0 48 -15.5 72.5t-40.5 24.5q-41 1 -54.5 -20t-13.5 -58l-1 -371q0 -32 14 -49.5t49 -17.5q22 0 35 10.5t20 26.5t8.5 35
t1.5 36v68h176v-92q0 -45 -12.5 -83t-39 -66.5t-68.5 -46t-100 -21.5l-30 -46l2 -2q7 3 16.5 4t20.5 1q17 -1 34 -5.5t30.5 -14t21.5 -24t8 -33.5q0 -24 -12 -42t-30 -30t-40.5 -18t-43.5 -6q-38 0 -67.5 8t-64.5 20l21 46q22 -6 42.5 -13t43.5 -7q19 0 36 9t16 28
q-1 17 -13.5 25.5t-26.5 9.5q-21 1 -42 -10l-26 24z" />
    <glyph glyph-name="Egrave" unicode="&#xc8;" 
d="M254 972l100 -148h-137l-171 148h208zM46 0v750h403v-150h-227v-138h220v-150h-220v-162h239v-150h-415z" />
    <glyph glyph-name="Eacute" unicode="&#xc9;" 
d="M455 972l-171 -148h-137l100 148h208zM46 0v750h403v-150h-227v-138h220v-150h-220v-162h239v-150h-415z" />
    <glyph glyph-name="Ecircumflex" unicode="&#xca;" 
d="M168 952h165l121 -148h-148l-55 75l-56 -75h-147zM46 0v750h403v-150h-227v-138h220v-150h-220v-162h239v-150h-415z" />
    <glyph glyph-name="Edieresis" unicode="&#xcb;" 
d="M280 960h158v-130h-158v130zM222 960v-130h-158v130h158zM46 0v750h403v-150h-227v-138h220v-150h-220v-162h239v-150h-415z" />
    <glyph glyph-name="Igrave" unicode="&#xcc;" horiz-adv-x="278" 
d="M143 972l100 -148h-137l-171 148h208zM51 0v750h176v-750h-176z" />
    <glyph glyph-name="Iacute" unicode="&#xcd;" horiz-adv-x="278" 
d="M344 972l-171 -148h-137l100 148h208zM51 0v750h176v-750h-176z" />
    <glyph glyph-name="Icircumflex" unicode="&#xce;" horiz-adv-x="278" 
d="M57 952h165l121 -148h-148l-55 75l-56 -75h-147zM51 0v750h176v-750h-176z" />
    <glyph glyph-name="Idieresis" unicode="&#xcf;" horiz-adv-x="278" 
d="M169 960h158v-130h-158v130zM111 960v-130h-158v130h158zM51 0v750h176v-750h-176z" />
    <glyph glyph-name="Eth" unicode="&#xd0;" horiz-adv-x="556" 
d="M222 485h74v-90h-74v-260h22q29 0 47.5 5t29 18t14 35.5t3.5 56.5v270q0 32 -6 51t-19.5 28.5t-36 12.5t-54.5 3v-130zM46 395h-44v90h44v265h179q60 0 113.5 -5t96.5 -30q25 -15 41 -35.5t24 -45t11 -51t3 -53.5v-320q0 -65 -20.5 -109.5t-54.5 -65.5q-35 -22 -75 -28.5
t-81 -6.5h-237v395z" />
    <glyph glyph-name="Ntilde" unicode="&#xd1;" horiz-adv-x="556" 
d="M349 810q-23 0 -44 5.5t-39 13.5q-17 7 -32.5 12.5t-27.5 5.5q-18 0 -29.5 -13t-14.5 -30h-79q5 25 13 50t22.5 45.5t35.5 33t52 12.5q24 0 44.5 -6t38.5 -13q18 -8 33.5 -14t29.5 -6q15 0 28 11.5t14 25.5h80q-3 -27 -12 -51t-24 -42t-37 -29t-52 -11zM196 420l-2 -2
l16 -418h-167v750h181l136 -419h3l-17 419h167v-750h-180z" />
    <glyph glyph-name="Ograve" unicode="&#xd2;" horiz-adv-x="556" 
d="M282 972l100 -148h-137l-171 148h208zM341 532q0 17 -1.5 35t-7.5 32.5t-18.5 24t-34.5 9.5q-21 0 -33.5 -9.5t-19 -24t-8.5 -32.5t-2 -35v-308q0 -16 2 -35t8.5 -35t19.5 -26.5t34 -10.5t33.5 10.5t18.5 26.5t7.5 35t1.5 35v308zM517 239q0 -63 -12 -111.5t-40 -80.5
t-73 -48.5t-112 -16.5t-112.5 16.5t-74 48.5t-41 80.5t-12.5 111.5v305q0 109 62 166.5t178 57.5t176.5 -57.5t60.5 -166.5v-305z" />
    <glyph glyph-name="Oacute" unicode="&#xd3;" horiz-adv-x="556" 
d="M483 972l-171 -148h-137l100 148h208zM341 532q0 17 -1.5 35t-7.5 32.5t-18.5 24t-34.5 9.5q-21 0 -33.5 -9.5t-19 -24t-8.5 -32.5t-2 -35v-308q0 -16 2 -35t8.5 -35t19.5 -26.5t34 -10.5t33.5 10.5t18.5 26.5t7.5 35t1.5 35v308zM517 239q0 -63 -12 -111.5t-40 -80.5
t-73 -48.5t-112 -16.5t-112.5 16.5t-74 48.5t-41 80.5t-12.5 111.5v305q0 109 62 166.5t178 57.5t176.5 -57.5t60.5 -166.5v-305z" />
    <glyph glyph-name="Ocircumflex" unicode="&#xd4;" horiz-adv-x="556" 
d="M196 952h165l121 -148h-148l-55 75l-56 -75h-147zM341 532q0 17 -1.5 35t-7.5 32.5t-18.5 24t-34.5 9.5q-21 0 -33.5 -9.5t-19 -24t-8.5 -32.5t-2 -35v-308q0 -16 2 -35t8.5 -35t19.5 -26.5t34 -10.5t33.5 10.5t18.5 26.5t7.5 35t1.5 35v308zM517 239q0 -63 -12 -111.5
t-40 -80.5t-73 -48.5t-112 -16.5t-112.5 16.5t-74 48.5t-41 80.5t-12.5 111.5v305q0 109 62 166.5t178 57.5t176.5 -57.5t60.5 -166.5v-305z" />
    <glyph glyph-name="Otilde" unicode="&#xd5;" horiz-adv-x="556" 
d="M349 810q-23 0 -44 5.5t-39 13.5q-17 7 -32.5 12.5t-27.5 5.5q-18 0 -29.5 -13t-14.5 -30h-79q5 25 13 50t22.5 45.5t35.5 33t52 12.5q24 0 44.5 -6t38.5 -13q18 -8 33.5 -14t29.5 -6q15 0 28 11.5t14 25.5h80q-3 -27 -12 -51t-24 -42t-37 -29t-52 -11zM341 532
q0 17 -1.5 35t-7.5 32.5t-18.5 24t-34.5 9.5q-21 0 -33.5 -9.5t-19 -24t-8.5 -32.5t-2 -35v-308q0 -16 2 -35t8.5 -35t19.5 -26.5t34 -10.5t33.5 10.5t18.5 26.5t7.5 35t1.5 35v308zM517 239q0 -63 -12 -111.5t-40 -80.5t-73 -48.5t-112 -16.5t-112.5 16.5t-74 48.5
t-41 80.5t-12.5 111.5v305q0 109 62 166.5t178 57.5t176.5 -57.5t60.5 -166.5v-305z" />
    <glyph glyph-name="Odieresis" unicode="&#xd6;" horiz-adv-x="556" 
d="M250 960v-130h-158v130h158zM308 960h158v-130h-158v130zM341 532q0 17 -1.5 35t-7.5 32.5t-18.5 24t-34.5 9.5q-21 0 -33.5 -9.5t-19 -24t-8.5 -32.5t-2 -35v-308q0 -16 2 -35t8.5 -35t19.5 -26.5t34 -10.5t33.5 10.5t18.5 26.5t7.5 35t1.5 35v308zM517 239
q0 -63 -12 -111.5t-40 -80.5t-73 -48.5t-112 -16.5t-112.5 16.5t-74 48.5t-41 80.5t-12.5 111.5v305q0 109 62 166.5t178 57.5t176.5 -57.5t60.5 -166.5v-305z" />
    <glyph glyph-name="multiply" unicode="&#xd7;" 
d="M33 391l82 81l135 -136l136 136l81 -81l-135 -136l135 -136l-81 -81l-136 136l-135 -136l-82 81l136 136z" />
    <glyph glyph-name="Oslash" unicode="&#xd8;" horiz-adv-x="556" 
d="M341 408h-2l-121 -218q4 -28 17 -50.5t45 -22.5q21 0 33.5 10.5t18.5 26.5t7.5 35t1.5 35v184zM216 294h2l123 227v11q0 17 -1.5 35t-7.5 32.5t-18.5 24t-34.5 9.5q-21 0 -33.5 -9.5t-19 -24t-8.5 -32.5t-2 -35v-238zM490 819l88 -46l-77 -132q16 -39 16 -97v-305
q0 -63 -12 -111.5t-40 -80.5t-73 -48.5t-112 -16.5q-88 0 -142 30l-51 -97l-82 48l67 115q-32 58 -32 161v305q0 109 62 166.5t178 57.5q98 0 156 -43z" />
    <glyph glyph-name="Ugrave" unicode="&#xd9;" horiz-adv-x="556" 
d="M282 972l100 -148h-137l-171 148h208zM42 750h176v-566q0 -14 2.5 -26t9 -21t18.5 -14.5t31 -5.5q17 0 28.5 6.5t18.5 17t10 23.5t3 25v561h176v-543q0 -48 -11.5 -89t-39.5 -71t-73.5 -47.5t-112.5 -17.5q-112 0 -174 54.5t-62 170.5v543z" />
    <glyph glyph-name="Uacute" unicode="&#xda;" horiz-adv-x="556" 
d="M483 972l-171 -148h-137l100 148h208zM42 750h176v-566q0 -14 2.5 -26t9 -21t18.5 -14.5t31 -5.5q17 0 28.5 6.5t18.5 17t10 23.5t3 25v561h176v-543q0 -48 -11.5 -89t-39.5 -71t-73.5 -47.5t-112.5 -17.5q-112 0 -174 54.5t-62 170.5v543z" />
    <glyph glyph-name="Ucircumflex" unicode="&#xdb;" horiz-adv-x="556" 
d="M196 952h165l121 -148h-148l-55 75l-56 -75h-147zM42 750h176v-566q0 -14 2.5 -26t9 -21t18.5 -14.5t31 -5.5q17 0 28.5 6.5t18.5 17t10 23.5t3 25v561h176v-543q0 -48 -11.5 -89t-39.5 -71t-73.5 -47.5t-112.5 -17.5q-112 0 -174 54.5t-62 170.5v543z" />
    <glyph glyph-name="Udieresis" unicode="&#xdc;" horiz-adv-x="556" 
d="M308 960h158v-130h-158v130zM250 960v-130h-158v130h158zM42 750h176v-566q0 -14 2.5 -26t9 -21t18.5 -14.5t31 -5.5q17 0 28.5 6.5t18.5 17t10 23.5t3 25v561h176v-543q0 -48 -11.5 -89t-39.5 -71t-73.5 -47.5t-112.5 -17.5q-112 0 -174 54.5t-62 170.5v543z" />
    <glyph glyph-name="Yacute" unicode="&#xdd;" horiz-adv-x="556" 
d="M483 972l-171 -148h-137l100 148h208zM277 505h2l90 245h176l-181 -435v-315h-176v315l-177 435h178z" />
    <glyph glyph-name="Thorn" unicode="&#xde;" horiz-adv-x="556" 
d="M229 332h31q24 0 41 2.5t28 12t16 28.5t5 51t-5 51t-16 28.5t-28 12t-41 2.5h-31v-188zM53 750h176v-95h33q65 0 114.5 -10t82.5 -35.5t50 -70t17 -113.5q0 -67 -17.5 -111t-51 -70.5t-82.5 -37t-113 -10.5h-33v-197h-176v750z" />
    <glyph glyph-name="germandbls" unicode="&#xdf;" 
d="M243 482q19 -1 28.5 7t13.5 20.5t4 27.5v30v29q0 16 -4 28.5t-13.5 20.5t-27.5 8q-22 0 -30.5 -14.5t-10.5 -34.5v-604h-159v589q0 90 57 134.5t150 44.5q45 0 82.5 -14t63.5 -39.5t40 -62.5t11 -82q-2 -23 -5 -42t-11 -35.5t-21.5 -30.5t-34.5 -26v-2q23 -7 39.5 -25
t26.5 -40t14.5 -44t4.5 -37v-113q-1 -41 -10.5 -75.5t-29 -60t-50.5 -41t-75 -16.5q-15 -1 -30 5t-23 11v115q38 -7 48.5 10t10.5 61v118q-1 16 -3.5 28.5t-9 21t-17.5 12.5t-29 3v115z" />
    <glyph glyph-name="agrave" unicode="&#xe0;" 
d="M301 272q-24 -13 -44.5 -21.5t-35.5 -19.5t-26 -27t-11 -45q0 -26 15 -43t44 -17q18 0 29 8t17.5 21t9 27.5t2.5 28.5v88zM254 782l100 -148h-137l-171 148h208zM307 50q-30 -33 -60 -50.5t-77 -17.5q-68 0 -107 41.5t-39 108.5q0 48 12 80t31.5 54t44.5 34.5t51 21.5
t50.5 15.5t44 15.5t31.5 22.5t12 36.5t-13 40.5t-37 17.5q-22 0 -33.5 -7t-17.5 -19t-7.5 -27.5t-2.5 -33.5h-159q-3 52 12.5 89t44.5 60t69.5 33.5t88.5 10.5q59 0 99.5 -9.5t66 -30t37 -53t11.5 -78.5v-343q0 -16 4 -31.5t9 -30.5h-155z" />
    <glyph glyph-name="aacute" unicode="&#xe1;" 
d="M301 272q-24 -13 -44.5 -21.5t-35.5 -19.5t-26 -27t-11 -45q0 -26 15 -43t44 -17q18 0 29 8t17.5 21t9 27.5t2.5 28.5v88zM455 782l-171 -148h-137l100 148h208zM307 50q-30 -33 -60 -50.5t-77 -17.5q-68 0 -107 41.5t-39 108.5q0 48 12 80t31.5 54t44.5 34.5t51 21.5
t50.5 15.5t44 15.5t31.5 22.5t12 36.5t-13 40.5t-37 17.5q-22 0 -33.5 -7t-17.5 -19t-7.5 -27.5t-2.5 -33.5h-159q-3 52 12.5 89t44.5 60t69.5 33.5t88.5 10.5q59 0 99.5 -9.5t66 -30t37 -53t11.5 -78.5v-343q0 -16 4 -31.5t9 -30.5h-155z" />
    <glyph glyph-name="acircumflex" unicode="&#xe2;" 
d="M301 272q-24 -13 -44.5 -21.5t-35.5 -19.5t-26 -27t-11 -45q0 -26 15 -43t44 -17q18 0 29 8t17.5 21t9 27.5t2.5 28.5v88zM168 762h165l121 -148h-148l-55 75l-56 -75h-147zM307 50q-30 -33 -60 -50.5t-77 -17.5q-68 0 -107 41.5t-39 108.5q0 48 12 80t31.5 54t44.5 34.5
t51 21.5t50.5 15.5t44 15.5t31.5 22.5t12 36.5t-13 40.5t-37 17.5q-22 0 -33.5 -7t-17.5 -19t-7.5 -27.5t-2.5 -33.5h-159q-3 52 12.5 89t44.5 60t69.5 33.5t88.5 10.5q59 0 99.5 -9.5t66 -30t37 -53t11.5 -78.5v-343q0 -16 4 -31.5t9 -30.5h-155z" />
    <glyph glyph-name="atilde" unicode="&#xe3;" 
d="M301 272q-24 -13 -44.5 -21.5t-35.5 -19.5t-26 -27t-11 -45q0 -26 15 -43t44 -17q18 0 29 8t17.5 21t9 27.5t2.5 28.5v88zM321 620q-23 0 -44 5.5t-39 13.5q-17 7 -32.5 12.5t-27.5 5.5q-18 0 -29.5 -13t-14.5 -30h-79q5 25 13 50t22.5 45.5t35.5 33t52 12.5
q24 0 44.5 -6t38.5 -13q18 -8 33.5 -14t29.5 -6q15 0 28 11.5t14 25.5h80q-3 -27 -12 -51t-24 -42t-37 -29t-52 -11zM307 50q-30 -33 -60 -50.5t-77 -17.5q-68 0 -107 41.5t-39 108.5q0 48 12 80t31.5 54t44.5 34.5t51 21.5t50.5 15.5t44 15.5t31.5 22.5t12 36.5t-13 40.5
t-37 17.5q-22 0 -33.5 -7t-17.5 -19t-7.5 -27.5t-2.5 -33.5h-159q-3 52 12.5 89t44.5 60t69.5 33.5t88.5 10.5q59 0 99.5 -9.5t66 -30t37 -53t11.5 -78.5v-343q0 -16 4 -31.5t9 -30.5h-155z" />
    <glyph glyph-name="adieresis" unicode="&#xe4;" 
d="M301 272q-24 -13 -44.5 -21.5t-35.5 -19.5t-26 -27t-11 -45q0 -26 15 -43t44 -17q18 0 29 8t17.5 21t9 27.5t2.5 28.5v88zM280 770h158v-130h-158v130zM222 770v-130h-158v130h158zM307 50q-30 -33 -60 -50.5t-77 -17.5q-68 0 -107 41.5t-39 108.5q0 48 12 80t31.5 54
t44.5 34.5t51 21.5t50.5 15.5t44 15.5t31.5 22.5t12 36.5t-13 40.5t-37 17.5q-22 0 -33.5 -7t-17.5 -19t-7.5 -27.5t-2.5 -33.5h-159q-3 52 12.5 89t44.5 60t69.5 33.5t88.5 10.5q59 0 99.5 -9.5t66 -30t37 -53t11.5 -78.5v-343q0 -16 4 -31.5t9 -30.5h-155z" />
    <glyph glyph-name="aring" unicode="&#xe5;" 
d="M251 790q-20 0 -36 -15.5t-16 -36.5t15.5 -36.5t36.5 -15.5t36.5 16t15.5 36t-16 36t-36 16zM301 272q-24 -13 -44.5 -21.5t-35.5 -19.5t-26 -27t-11 -45q0 -26 15 -43t44 -17q18 0 29 8t17.5 21t9 27.5t2.5 28.5v88zM251 625q-23 0 -43.5 9t-36 24.5t-24.5 36t-9 43.5
t9 43.5t24.5 35.5t36 24t43.5 9t43.5 -9t35.5 -24t24 -35.5t9 -43.5t-9 -43.5t-24 -36t-35.5 -24.5t-43.5 -9zM307 50q-30 -33 -60 -50.5t-77 -17.5q-68 0 -107 41.5t-39 108.5q0 48 12 80t31.5 54t44.5 34.5t51 21.5t50.5 15.5t44 15.5t31.5 22.5t12 36.5t-13 40.5
t-37 17.5q-22 0 -33.5 -7t-17.5 -19t-7.5 -27.5t-2.5 -33.5h-159q-3 52 12.5 89t44.5 60t69.5 33.5t88.5 10.5q59 0 99.5 -9.5t66 -30t37 -53t11.5 -78.5v-343q0 -16 4 -31.5t9 -30.5h-155z" />
    <glyph glyph-name="ae" unicode="&#xe6;" horiz-adv-x="722" 
d="M560 351v59q-2 25 -11.5 43t-37.5 18q-19 0 -30.5 -6.5t-18 -17.5t-8 -24.5t-1.5 -28.5v-43h107zM296 271q-23 -13 -43.5 -20.5t-36.5 -17.5q-16 -11 -25.5 -27.5t-9.5 -48.5q0 -26 10.5 -43t42.5 -17q24 0 37 14t18.5 34t6 42.5t0.5 39.5v44zM455 246v-82q1 -13 2.5 -26
t7 -23t15 -16.5t26.5 -6.5q20 0 29.5 9.5t13.5 24t4 30.5t1 29h159q6 -107 -50 -155t-163 -48q-18 0 -39 3t-40.5 10.5t-36 18.5t-25.5 28q-17 -18 -38 -30t-44.5 -18.5t-48.5 -9t-48 -2.5q-72 0 -115.5 42t-43.5 117q0 44 9.5 74t28.5 51.5t48.5 36t69.5 27.5
q17 5 37.5 10.5t39.5 13.5q19 9 31.5 22.5t12.5 36.5q0 26 -15 42t-41 16q-20 0 -32.5 -7.5t-19.5 -19.5t-9 -27.5t-1 -31.5h-159q-3 53 12 89.5t44.5 59t71.5 32.5t93 10q36 0 73 -10.5t64 -33.5q29 23 60 33.5t69 10.5q98 0 154.5 -49.5t56.5 -151.5v-129h-264z" />
    <glyph glyph-name="ccedilla" unicode="&#xe7;" 
d="M215 -16q-37 3 -67.5 14t-52.5 31.5t-34 51.5t-12 75v228q0 54 13.5 90.5t39 59t62 32.5t82.5 10q118 -2 167.5 -55t42.5 -169h-150l-1 10q-2 16 -2.5 32t-3.5 32q-5 17 -15 26t-28 9q-31 0 -39.5 -20.5t-8.5 -47.5v-231q0 -26 10 -45.5t41 -19.5q22 0 32.5 14.5t14 35
t3 42.5t-0.5 38h154q0 -12 -1 -30.5t-2.5 -37.5t-4 -36.5t-5.5 -28.5q-16 -53 -57 -78.5t-93 -30.5q-5 0 -11.5 -0.5t-14.5 -0.5l-30 -46l2 -2q7 3 16.5 4t20.5 1q17 -1 34 -5.5t30.5 -14t21.5 -24t8 -33.5q0 -24 -12 -42t-30 -30t-40.5 -18t-43.5 -6q-38 0 -67.5 8
t-64.5 20l21 46q22 -6 42.5 -13t43.5 -7q19 0 36 9t16 28q-1 17 -13.5 25.5t-26.5 9.5q-21 1 -42 -10l-26 24z" />
    <glyph glyph-name="egrave" unicode="&#xe8;" 
d="M307 359v55q0 7 -2.5 17t-9 19t-17 15t-25.5 6q-34 0 -45 -23t-11 -52v-37h110zM254 782l100 -148h-137l-171 148h208zM197 254v-98q0 -23 11.5 -40t37.5 -19q22 -1 33 7.5t16 22.5t5.5 31.5t1.5 35.5h158q6 -108 -49.5 -159.5t-158.5 -52.5q-43 0 -81.5 9t-68 29.5
t-47 54t-17.5 81.5v228q0 54 16 90.5t44.5 59t68 32.5t85.5 10q42 0 80.5 -8t68 -27t47.5 -50.5t18 -76.5v-160h-269z" />
    <glyph glyph-name="eacute" unicode="&#xe9;" 
d="M307 359v55q0 7 -2.5 17t-9 19t-17 15t-25.5 6q-34 0 -45 -23t-11 -52v-37h110zM455 782l-171 -148h-137l100 148h208zM197 254v-98q0 -23 11.5 -40t37.5 -19q22 -1 33 7.5t16 22.5t5.5 31.5t1.5 35.5h158q6 -108 -49.5 -159.5t-158.5 -52.5q-43 0 -81.5 9t-68 29.5
t-47 54t-17.5 81.5v228q0 54 16 90.5t44.5 59t68 32.5t85.5 10q42 0 80.5 -8t68 -27t47.5 -50.5t18 -76.5v-160h-269z" />
    <glyph glyph-name="ecircumflex" unicode="&#xea;" 
d="M307 359v55q0 7 -2.5 17t-9 19t-17 15t-25.5 6q-34 0 -45 -23t-11 -52v-37h110zM168 762h165l121 -148h-148l-55 75l-56 -75h-147zM197 254v-98q0 -23 11.5 -40t37.5 -19q22 -1 33 7.5t16 22.5t5.5 31.5t1.5 35.5h158q6 -108 -49.5 -159.5t-158.5 -52.5q-43 0 -81.5 9
t-68 29.5t-47 54t-17.5 81.5v228q0 54 16 90.5t44.5 59t68 32.5t85.5 10q42 0 80.5 -8t68 -27t47.5 -50.5t18 -76.5v-160h-269z" />
    <glyph glyph-name="edieresis" unicode="&#xeb;" 
d="M307 359v55q0 7 -2.5 17t-9 19t-17 15t-25.5 6q-34 0 -45 -23t-11 -52v-37h110zM280 770h158v-130h-158v130zM222 770v-130h-158v130h158zM197 254v-98q0 -23 11.5 -40t37.5 -19q22 -1 33 7.5t16 22.5t5.5 31.5t1.5 35.5h158q6 -108 -49.5 -159.5t-158.5 -52.5
q-43 0 -81.5 9t-68 29.5t-47 54t-17.5 81.5v228q0 54 16 90.5t44.5 59t68 32.5t85.5 10q42 0 80.5 -8t68 -27t47.5 -50.5t18 -76.5v-160h-269z" />
    <glyph glyph-name="igrave" unicode="&#xec;" horiz-adv-x="278" 
d="M143 782l100 -148h-137l-171 148h208zM60 0v560h159v-560h-159z" />
    <glyph glyph-name="iacute" unicode="&#xed;" horiz-adv-x="278" 
d="M344 782l-171 -148h-137l100 148h208zM60 0v560h159v-560h-159z" />
    <glyph glyph-name="icircumflex" unicode="&#xee;" horiz-adv-x="278" 
d="M47 762h165l121 -148h-148l-55 75l-56 -75h-147zM60 0v560h159v-560h-159z" />
    <glyph glyph-name="idieresis" unicode="&#xef;" horiz-adv-x="278" 
d="M169 770h158v-130h-158v130zM111 770v-130h-158v130h158zM60 0v560h159v-560h-159z" />
    <glyph glyph-name="eth" unicode="&#xf0;" 
d="M201 146q0 -49 49 -49t49 49v222q0 27 -10.5 46t-38.5 19t-38.5 -19t-10.5 -46v-222zM126 706l-63 62l101 71l65 -65l76 51l42 -50l-71 -48q37 -42 70.5 -81t58 -82.5t39 -93.5t14.5 -114v-200q0 -48 -15.5 -81t-43 -53.5t-66 -30t-83.5 -9.5q-43 0 -80.5 9t-66 30
t-45 54t-16.5 81v200q0 54 15 90.5t38.5 59t52.5 32.5t58 10t45.5 -6t29.5 -17l2 2q-20 29 -46.5 61.5t-63.5 70.5l-85 -57l-42 50z" />
    <glyph glyph-name="ntilde" unicode="&#xf1;" 
d="M321 620q-23 0 -44 5.5t-39 13.5q-17 7 -32.5 12.5t-27.5 5.5q-18 0 -29.5 -13t-14.5 -30h-79q5 25 13 50t22.5 45.5t35.5 33t52 12.5q24 0 44.5 -6t38.5 -13q18 -8 33.5 -14t29.5 -6q15 0 28 11.5t14 25.5h80q-3 -27 -12 -51t-24 -42t-37 -29t-52 -11zM197 560v-70h2
q6 16 17 31.5t25.5 27.5t32 19.5t36.5 7.5q28 0 54 -7.5t45.5 -22.5t31 -37t11.5 -50v-459h-159v400q-2 20 -10.5 34t-31.5 12q-43 -2 -43 -46v-400h-159v560h148z" />
    <glyph glyph-name="ograve" unicode="&#xf2;" 
d="M254 782l100 -148h-137l-171 148h208zM201 146q2 -24 13 -36.5t36 -12.5t36 12.5t13 36.5v250q0 27 -10.5 46t-38.5 19t-38.5 -19t-10.5 -46v-250zM42 384q0 54 15 90.5t42.5 59t66 32.5t84.5 10q106 0 157 -48.5t51 -143.5v-228q-6 -95 -61.5 -134.5t-146.5 -39.5
q-43 0 -80.5 9t-66 30t-45 54t-16.5 81v228z" />
    <glyph glyph-name="oacute" unicode="&#xf3;" 
d="M455 782l-171 -148h-137l100 148h208zM201 146q2 -24 13 -36.5t36 -12.5t36 12.5t13 36.5v250q0 27 -10.5 46t-38.5 19t-38.5 -19t-10.5 -46v-250zM42 384q0 54 15 90.5t42.5 59t66 32.5t84.5 10q106 0 157 -48.5t51 -143.5v-228q-6 -95 -61.5 -134.5t-146.5 -39.5
q-43 0 -80.5 9t-66 30t-45 54t-16.5 81v228z" />
    <glyph glyph-name="ocircumflex" unicode="&#xf4;" 
d="M201 146q2 -24 13 -36.5t36 -12.5t36 12.5t13 36.5v250q0 27 -10.5 46t-38.5 19t-38.5 -19t-10.5 -46v-250zM168 762h165l121 -148h-148l-55 75l-56 -75h-147zM42 384q0 54 15 90.5t42.5 59t66 32.5t84.5 10q106 0 157 -48.5t51 -143.5v-228q-6 -95 -61.5 -134.5
t-146.5 -39.5q-43 0 -80.5 9t-66 30t-45 54t-16.5 81v228z" />
    <glyph glyph-name="otilde" unicode="&#xf5;" 
d="M201 146q2 -24 13 -36.5t36 -12.5t36 12.5t13 36.5v250q0 27 -10.5 46t-38.5 19t-38.5 -19t-10.5 -46v-250zM321 620q-23 0 -44 5.5t-39 13.5q-17 7 -32.5 12.5t-27.5 5.5q-18 0 -29.5 -13t-14.5 -30h-79q5 25 13 50t22.5 45.5t35.5 33t52 12.5q24 0 44.5 -6t38.5 -13
q18 -8 33.5 -14t29.5 -6q15 0 28 11.5t14 25.5h80q-3 -27 -12 -51t-24 -42t-37 -29t-52 -11zM42 384q0 54 15 90.5t42.5 59t66 32.5t84.5 10q106 0 157 -48.5t51 -143.5v-228q-6 -95 -61.5 -134.5t-146.5 -39.5q-43 0 -80.5 9t-66 30t-45 54t-16.5 81v228z" />
    <glyph glyph-name="odieresis" unicode="&#xf6;" 
d="M222 770v-130h-158v130h158zM280 770h158v-130h-158v130zM201 146q2 -24 13 -36.5t36 -12.5t36 12.5t13 36.5v250q0 27 -10.5 46t-38.5 19t-38.5 -19t-10.5 -46v-250zM42 384q0 54 15 90.5t42.5 59t66 32.5t84.5 10q106 0 157 -48.5t51 -143.5v-228q-6 -95 -61.5 -134.5
t-146.5 -39.5q-43 0 -80.5 9t-66 30t-45 54t-16.5 81v228z" />
    <glyph glyph-name="divide" unicode="&#xf7;" 
d="M330 492v-115h-159v115h159zM330 122v-115h-159v115h159zM26 307h449v-115h-449v115z" />
    <glyph glyph-name="oslash" unicode="&#xf8;" 
d="M299 390q0 13 -2 26t-7 23t-14.5 16t-25.5 6q-28 0 -38.5 -19t-10.5 -46v-147h2zM201 185v-39q2 -24 13 -36.5t36 -12.5t36 12.5t13 36.5v184h-2zM431 633l72 -46l-67 -100q22 -40 22 -103v-228q-6 -95 -61.5 -134.5t-146.5 -39.5q-40 0 -75.5 8t-61.5 25l-55 -89l-69 47
l69 102q-8 18 -12 38t-4 43v228q0 54 15 90.5t42.5 59t66 32.5t84.5 10q81 0 129 -29z" />
    <glyph glyph-name="ugrave" unicode="&#xf9;" 
d="M254 782l100 -148h-137l-171 148h208zM301 0v69h-2q-6 -16 -17 -31.5t-25.5 -28t-32 -20t-36.5 -7.5q-69 0 -105.5 30.5t-36.5 87.5v460h159v-401q1 -10 3 -18.5t6 -15.5t11.5 -10.5t18.5 -2.5q21 1 33.5 13t12.5 34v401h159v-560h-148z" />
    <glyph glyph-name="uacute" unicode="&#xfa;" 
d="M455 782l-171 -148h-137l100 148h208zM301 0v69h-2q-6 -16 -17 -31.5t-25.5 -28t-32 -20t-36.5 -7.5q-69 0 -105.5 30.5t-36.5 87.5v460h159v-401q1 -10 3 -18.5t6 -15.5t11.5 -10.5t18.5 -2.5q21 1 33.5 13t12.5 34v401h159v-560h-148z" />
    <glyph glyph-name="ucircumflex" unicode="&#xfb;" 
d="M168 772h165l121 -148h-148l-55 75l-56 -75h-147zM301 0v69h-2q-6 -16 -17 -31.5t-25.5 -28t-32 -20t-36.5 -7.5q-69 0 -105.5 30.5t-36.5 87.5v460h159v-401q1 -10 3 -18.5t6 -15.5t11.5 -10.5t18.5 -2.5q21 1 33.5 13t12.5 34v401h159v-560h-148z" />
    <glyph glyph-name="udieresis" unicode="&#xfc;" 
d="M280 770h158v-130h-158v130zM222 770v-130h-158v130h158zM301 0v69h-2q-6 -16 -17 -31.5t-25.5 -28t-32 -20t-36.5 -7.5q-69 0 -105.5 30.5t-36.5 87.5v460h159v-401q1 -10 3 -18.5t6 -15.5t11.5 -10.5t18.5 -2.5q21 1 33.5 13t12.5 34v401h159v-560h-148z" />
    <glyph glyph-name="yacute" unicode="&#xfd;" horiz-adv-x="444" 
d="M427 782l-171 -148h-137l100 148h208zM220 198h2l55 362h156l-101 -479q-15 -57 -25.5 -106.5t-30.5 -85.5t-56 -57t-101 -21q-21 0 -36 2.5t-27 2.5v118q8 -1 15.5 -1.5t15.5 -2.5q6 -1 14.5 0t16 4.5t12.5 9.5t5 14q0 20 -6.5 47.5t-11.5 47.5l-111 507h160z" />
    <glyph glyph-name="thorn" unicode="&#xfe;" 
d="M299 354q0 12 -0.5 28t-5 30.5t-14 24t-26.5 9.5q-32 0 -42 -29t-10 -70v-132q0 -18 2 -36.5t7.5 -33t15 -24t24.5 -9.5q18 0 28 10t14.5 24.5t5.5 31.5t1 31v145zM42 750h159v-246h2q15 33 46 52.5t73 19.5q39 0 65.5 -17.5t42 -45.5t22 -62t6.5 -67v-194
q0 -36 -5.5 -73t-20.5 -67t-42.5 -49t-70.5 -19q-11 0 -25 3.5t-29.5 11.5t-31.5 21.5t-30 34.5h-2v-242h-159v939z" />
    <glyph glyph-name="ydieresis" unicode="&#xff;" horiz-adv-x="444" 
d="M252 770h158v-130h-158v130zM194 770v-130h-158v130h158zM220 198h2l55 362h156l-101 -479q-15 -57 -25.5 -106.5t-30.5 -85.5t-56 -57t-101 -21q-21 0 -36 2.5t-27 2.5v118q8 -1 15.5 -1.5t15.5 -2.5q6 -1 14.5 0t16 4.5t12.5 9.5t5 14q0 20 -6.5 47.5t-11.5 47.5
l-111 507h160z" />
    <glyph glyph-name="dotlessi" unicode="&#x131;" horiz-adv-x="278" 
d="M60 0v560h159v-560h-159z" />
    <glyph glyph-name="Lslash" unicode="&#x141;" horiz-adv-x="444" 
d="M213 527l61 43v-132l-61 -43v-245h215v-150h-391v288l-59 -42v132l59 42v330h176v-223z" />
    <glyph glyph-name="lslash" unicode="&#x142;" horiz-adv-x="278" 
d="M58 750h159v-252l65 37v-107l-65 -37v-391h-159v303l-65 -37v107l65 37v340z" />
    <glyph glyph-name="OE" unicode="&#x152;" horiz-adv-x="778" 
d="M340 532q0 15 -0.5 31.5t-5.5 30.5t-15.5 24t-30.5 12q-29 3 -44.5 -7.5t-23.5 -28t-9.5 -39.5t-1.5 -41v-289q0 -19 0.5 -38t5.5 -34.5t18 -25t37 -9.5q25 0 39.5 8.5t21 23t8 33.5t1.5 40v309zM351 64h-2q-20 -40 -55.5 -61t-80.5 -21q-60 0 -95.5 25.5t-54 65.5
t-24.5 89t-6 97v234q0 45 6 93.5t25 89t53.5 66.5t91.5 26q41 0 79 -19t64 -61h2v62h382v-150h-227v-139h220v-150h-220v-162h234v-150h-392v65z" />
    <glyph glyph-name="oe" unicode="&#x153;" horiz-adv-x="722" 
d="M557 351v40q0 14 -1 28t-5.5 25t-13 18.5t-22.5 8.5q-21 2 -36.5 -9.5t-18.5 -31.5q-5 -19 -4.5 -39t-0.5 -40h102zM296 409q-3 23 -14.5 37.5t-37.5 14.5q-25 0 -37.5 -14.5t-12.5 -37.5v-262q0 -50 50 -50q26 0 38 13t14 37v262zM716 246h-261v-48v-35q0 -17 4.5 -32
t17 -24.5t36.5 -9.5q18 0 27 11t13 26.5t5 31.5t1 27h155q2 -105 -47.5 -158t-160.5 -53q-38 0 -72 14.5t-57 42.5q-27 -30 -65.5 -43.5t-78.5 -13.5q-58 0 -96 14.5t-60.5 42t-32 66.5t-9.5 88v173q0 48 9.5 87t32 66.5t60 42t92.5 14.5q42 0 82 -14t68 -45q32 33 64 46
t78 13q41 0 76 -11t61 -32.5t41 -53t17 -72.5v-161z" />
    <glyph glyph-name="Scaron" unicode="&#x160;" 
d="M306 952h148l-121 -148h-165l-120 148h147l56 -75zM179 251v-53q0 -16 3 -30.5t11 -26t21.5 -18t34.5 -6.5q31 0 45 23t14 52q0 24 -9 41t-23 30t-31.5 23t-34.5 21q-41 23 -74.5 46t-58.5 52q-24 29 -37.5 64.5t-13.5 85.5q0 106 59 159.5t162 53.5q57 0 100.5 -18
t71.5 -50.5t41 -77t10 -97.5h-162q-1 16 -2 34.5t-6 34.5t-16.5 26.5t-33.5 12.5q-27 2 -42.5 -11.5t-18.5 -38.5q-4 -34 11.5 -54t41.5 -38q50 -32 91.5 -54.5t72.5 -51.5t48 -69.5t17 -109.5q0 -109 -58 -166.5t-168 -57.5q-60 0 -103.5 15.5t-71.5 42t-41 60.5t-13 71v80
h163z" />
    <glyph glyph-name="scaron" unicode="&#x161;" horiz-adv-x="444" 
d="M268 762h148l-121 -148h-165l-120 148h147l56 -75zM275 394q-2 14 -3 28t-6 25t-15 17.5t-29 6.5q-23 0 -38 -11t-15 -36q0 -23 15.5 -35.5t33.5 -21.5q39 -18 77 -33.5t68.5 -37.5t49.5 -54t19 -82q0 -47 -16.5 -80.5t-45.5 -55.5t-67.5 -32t-82.5 -10q-47 0 -86.5 10.5
t-67 33.5t-42 58.5t-12.5 86.5h152q-1 -15 1 -30t8.5 -27t18 -19.5t29.5 -7.5q26 0 41.5 13t15.5 40t-21 43q-24 13 -51.5 24.5t-55 24.5t-52.5 29t-44 37q-40 46 -40 105q0 45 16.5 78t45 54t66 31t79.5 10q43 0 81 -11t66 -33.5t43 -57t13 -80.5h-149z" />
    <glyph glyph-name="Ydieresis" unicode="&#x178;" horiz-adv-x="556" 
d="M308 960h158v-130h-158v130zM250 960v-130h-158v130h158zM277 505h2l90 245h176l-181 -435v-315h-176v315l-177 435h178z" />
    <glyph glyph-name="Zcaron" unicode="&#x17d;" horiz-adv-x="444" 
d="M278 952h148l-121 -148h-165l-120 148h147l56 -75zM26 750h398v-140l-218 -460h228v-150h-424v134l222 466h-206v150z" />
    <glyph glyph-name="zcaron" unicode="&#x17e;" horiz-adv-x="389" 
d="M250 762h148l-121 -148h-165l-120 148h147l56 -75zM25 560h350v-116l-182 -319h182v-125h-361v111l182 324h-171v125z" />
    <glyph glyph-name="florin" unicode="&#x192;" 
d="M458 491v-111h-119q-12 -76 -20.5 -131.5t-15.5 -97t-12.5 -71.5t-11.5 -54.5t-12.5 -46.5t-14.5 -47q-12 -30 -26 -53.5t-33 -39t-44 -24t-58 -8.5q-22 0 -44 4.5t-43 16.5l21 131q14 -13 30 -16.5t33 6.5l7 7t7 14t9.5 35.5t14 71.5t20.5 120t29 183h-103v111h124
q11 92 32 146t49 82t61.5 36t70.5 8q21 0 41.5 -5t37.5 -9l-27 -127q-14 5 -29 9t-29 -3q-16 -6 -24 -23t-12.5 -37.5t-6.5 -41.5t-5 -35h103z" />
    <glyph glyph-name="circumflex" unicode="&#x2c6;" horiz-adv-x="333" 
d="M84 782h165l121 -148h-148l-55 75l-56 -75h-147z" />
    <glyph glyph-name="caron" unicode="&#x2c7;" horiz-adv-x="333" 
d="M222 782h148l-121 -148h-165l-120 148h147l56 -75z" />
    <glyph glyph-name="breve" unicode="&#x2d8;" horiz-adv-x="333" 
d="M65 787q2 -21 13 -33t26 -18.5t32.5 -8.5t34.5 -2q38 0 63.5 11t36.5 51h77q-1 -39 -16 -67.5t-40.5 -47.5t-58 -28.5t-67.5 -9.5q-79 0 -127 35t-53 118h79z" />
    <glyph glyph-name="dotaccent" unicode="&#x2d9;" horiz-adv-x="333" 
d="M246 770v-130h-159v130h159z" />
    <glyph glyph-name="ring" unicode="&#x2da;" horiz-adv-x="333" 
d="M167 800q-20 0 -36 -15.5t-16 -36.5t15.5 -36.5t36.5 -15.5t36.5 16t15.5 36t-16 36t-36 16zM167 635q-23 0 -43.5 9t-36 24.5t-24.5 36t-9 43.5t9 43.5t24.5 35.5t36 24t43.5 9t43.5 -9t35.5 -24t24 -35.5t9 -43.5t-9 -43.5t-24 -36t-35.5 -24.5t-43.5 -9z" />
    <glyph glyph-name="ogonek" unicode="&#x2db;" horiz-adv-x="333" 
d="M278 -190q-44 -15 -89 -15q-23 0 -44 6t-37 18t-25.5 30.5t-9.5 44.5q0 18 8 33.5t20 28.5t26.5 24t28.5 20h83v-2q-23 -12 -39.5 -28.5t-16.5 -36.5q0 -19 14 -34t33 -15q14 0 24.5 3.5t23.5 8.5v-86z" />
    <glyph glyph-name="tilde" unicode="&#x2dc;" horiz-adv-x="333" 
d="M237 640q-23 0 -44 5.5t-39 13.5q-17 7 -32.5 12.5t-27.5 5.5q-18 0 -29.5 -13t-14.5 -30h-79q5 25 13 50t22.5 45.5t35.5 33t52 12.5q24 0 44.5 -6t38.5 -13q18 -8 33.5 -14t29.5 -6q15 0 28 11.5t14 25.5h80q-3 -27 -12 -51t-24 -42t-37 -29t-52 -11z" />
    <glyph glyph-name="hungarumlaut" unicode="&#x2dd;" horiz-adv-x="333" 
d="M311 782h210l-173 -148h-136zM13 782h210l-173 -148h-136z" />
    <glyph glyph-name="endash" unicode="&#x2013;" 
d="M0 253v115h500v-115h-500z" />
    <glyph glyph-name="emdash" unicode="&#x2014;" horiz-adv-x="1000" 
d="M0 253v115h1000v-115h-1000z" />
    <glyph glyph-name="quoteleft" unicode="&#x2018;" horiz-adv-x="278" 
d="M220 711q-43 -2 -64.5 -28t-19.5 -68h84v-160h-158v161q0 76 42 111.5t116 40.5v-57z" />
    <glyph glyph-name="quoteright" unicode="&#x2019;" horiz-adv-x="278" 
d="M58 494q43 2 64.5 28t19.5 68h-84v160h158v-161q0 -76 -42 -111.5t-116 -40.5v57z" />
    <glyph glyph-name="quotesinglbase" unicode="&#x201a;" horiz-adv-x="278" 
d="M60 -95q43 2 64.5 28t19.5 68h-84v160h158v-161q0 -76 -42 -111.5t-116 -40.5v57z" />
    <glyph glyph-name="quotedblleft" unicode="&#x201c;" 
d="M451 711q-43 -2 -64.5 -28t-19.5 -68h84v-160h-158v161q0 76 42 111.5t116 40.5v-57zM211 711q-43 -2 -64.5 -28t-19.5 -68h84v-160h-158v161q0 76 42 111.5t116 40.5v-57z" />
    <glyph glyph-name="quotedblright" unicode="&#x201d;" 
d="M49 494q43 2 64.5 28t19.5 68h-84v160h158v-161q0 -76 -42 -111.5t-116 -40.5v57zM289 494q43 2 64.5 28t19.5 68h-84v160h158v-161q0 -76 -42 -111.5t-116 -40.5v57z" />
    <glyph glyph-name="quotedblbase" unicode="&#x201e;" 
d="M51 -95q43 2 64.5 28t19.5 68h-84v160h158v-161q0 -76 -42 -111.5t-116 -40.5v57zM292 -95q43 2 64.5 28t19.5 68h-84v160h158v-161q0 -76 -42 -111.5t-116 -40.5v57z" />
    <glyph glyph-name="dagger" unicode="&#x2020;" 
d="M29 386v135h141v229h159v-229h143v-135h-143v-559h-159v559h-141z" />
    <glyph glyph-name="daggerdbl" unicode="&#x2021;" 
d="M171 38h-144v135h144v222h-144v135h144v220h159v-220h142v-135h-142v-222h144v-135h-144v-209h-159v209z" />
    <glyph glyph-name="bullet" unicode="&#x2022;" horiz-adv-x="420" 
d="M398 375q0 -39 -15 -73.5t-40.5 -60t-60 -40.5t-73.5 -15t-73 15t-59.5 40.5t-40 60t-14.5 73.5t14.5 73t40 59.5t59.5 40t73 14.5t73.5 -14.5t60 -40t40.5 -59.5t15 -73z" />
    <glyph glyph-name="ellipsis" unicode="&#x2026;" horiz-adv-x="1000" 
d="M415 0v171h169v-171h-169zM749 0v171h169v-171h-169zM82 0v171h169v-171h-169z" />
    <glyph glyph-name="perthousand" unicode="&#x2030;" horiz-adv-x="1111" 
d="M158 661q-17 1 -25 -8.5t-11 -24.5t-2.5 -31.5t0.5 -28.5q0 -17 -0.5 -34.5t2 -31.5t11 -23t26.5 -9q17 0 25 11t11 26.5t3 31.5v29t1 28t-2 30.5t-11.5 24.5t-27.5 10zM952 278q-17 1 -25 -8.5t-11 -24.5t-2.5 -31.5t0.5 -28.5q0 -17 -0.5 -34.5t2 -31.5t11 -23t26.5 -9
q17 0 25 11t11 26.5t3 31.5v29t1 28t-2 30.5t-11.5 24.5t-27.5 10zM579 278q-17 1 -25 -8.5t-11 -24.5t-2.5 -31.5t0.5 -28.5q0 -17 -0.5 -34.5t2 -31.5t11 -23t26.5 -9q17 0 25 11t11 26.5t3 31.5v29t1 28t-2 30.5t-11.5 24.5t-27.5 10zM240 -18h-82l338 768h83zM579 369
q90 0 125.5 -46t35.5 -140q0 -39 -5.5 -73.5t-22.5 -59.5t-48.5 -39.5t-83.5 -14.5q-48 0 -79 13t-49 37t-25 58.5t-7 78.5q0 41 8 75t27 59t49 38.5t75 13.5zM952 369q90 0 125.5 -46t35.5 -140q0 -39 -5.5 -73.5t-22.5 -59.5t-48.5 -39.5t-83.5 -14.5q-48 0 -79 13t-49 37
t-25 58.5t-7 78.5q0 41 8 75t27 59t49 38.5t75 13.5zM158 752q90 0 125.5 -46t35.5 -140q0 -39 -5.5 -73.5t-22.5 -59.5t-48.5 -39.5t-83.5 -14.5q-48 0 -79 13t-49 37t-25 58.5t-7 78.5q0 41 8 75t27 59t49 38.5t75 13.5z" />
    <glyph glyph-name="guilsinglleft" unicode="&#x2039;" horiz-adv-x="278" 
d="M53 239v146l181 120v-131l-102 -63l102 -58v-130z" />
    <glyph glyph-name="guilsinglright" unicode="&#x203a;" horiz-adv-x="278" 
d="M44 253l102 58l-102 63v131l181 -120v-146l-181 -116v130z" />
    <glyph glyph-name="fraction" unicode="&#x2044;" horiz-adv-x="167" 
d="M-168 0l410 750h84l-407 -750h-87z" />
    <glyph glyph-name="fraction" unicode="&#x2215;" horiz-adv-x="167" 
d="M-168 0l410 750h84l-407 -750h-87z" />
    <glyph glyph-name="trademark" unicode="&#x2122;" horiz-adv-x="860" 
d="M338 662h-119v-316h-102v316h-114v88h335v-88zM858 346h-93v316h-2l-112 -316h-62l-112 316h-2v-316h-93v404h147l90 -249h2l90 249h147v-404z" />
    <glyph glyph-name="minus" unicode="&#x2212;" 
d="M26 307h449v-115h-449v115z" />
    <glyph glyph-name="fi" unicode="&#xfb01;" horiz-adv-x="556" 
d="M344 615v135h159v-135h-159zM344 0v560h159v-560h-159zM310 750v-115h-34q-14 0 -24 -4t-10 -15v-56h68v-115h-68v-445h-159v445h-64v115h63v48q0 80 40.5 111t117.5 31h70z" />
    <glyph glyph-name="fl" unicode="&#xfb02;" horiz-adv-x="556" 
d="M344 0v750h159v-750h-159zM310 750v-115h-34q-14 0 -24 -4t-10 -15v-56h68v-115h-68v-445h-159v445h-64v115h63v48q0 80 40.5 111t117.5 31h70z" />
    <glyph glyph-name="nonbreakingspace" horiz-adv-x="250" 
 />
    </font>
</defs>
</svg>
